&title=神鳴
&artist=Rígr feat. 光吉猛修
&first=-0.03
&des=YOZ vs. YKN
&des_5=YOZ vs. YKN
&lv_5=14+
&inote_5=(205){4},{24},,,,,,,,,1b,2/8,3/7,4/6,5s1>4[24:35]*-1<4[24:35],{1},{4},,,{16},,{24},{8}3,
5,
4,6,4h[4:1],5,{2}5,
{4},,,{32}E3,B3,{16}B4,{1},{4},,{8}2,
3,4,6,4,
5,3,5h[4:1],4,{2}4,
{4},,,E7/E3/B3/B6,
,,,8h[8:3],
{8}1,1h[8:3],,7,{4}7h[4:1],{24}1b,2,3,4,5,6,
7,8,1,2,3,4,5,6,7,8,1,2,3,4,5,6,7,8,1,2,3,4,5,6,
7,8,1,2,3,4,5,6,7,8,1,2,3,4,5,6,7,8,1,2,3,4,5,6,
7,8,1,2,3,4,5,6,7,8,1,2,3,4,5,6,7,8,1xh[4:3]/E6,E7,E8,E1,E2,E3,
E4,E5,E6,E7,E8,E1,E2,E3,E4,E5,E6,E7,{4}Cf,{8}7/3,6,
5/1,6,7/3,6,{4}5xh[8:1]/1xh[8:1],{8}2/6,3,
4/8,3,2/6,3,{4}8xh[8:1]/4xh[8:1],{8}1/2,2/1,
3/8,3/8,4/7,7/4,{32}6/5,7,8,1,2,3,4,5,{4}6/1b-5[8:1],
1bs5[8:1],{8}1/7b-3b[8:1],7,{4}Cf,{8}1>5[8:1],7,
5-1[8:1],7,1-5[8:1],7,5,7,8<4[8:1],2,
4-8[8:1],2,8-4[8:1],2,4,2,3,5/6,
7,5/6,4,5/6,7,8/1,2,3/6,
{16}4,5,{8}4,8/7,6h,2/1,3h,8V64[8:1],2,
4-8[8:1],2,8-4[8:1],2,4,2,1-3-5[8:1],7,
5-1[8:1],7,1-5[8:1],7,5,7,6,4/3,
2,4/3,5,4/3,2,1/8,{16}7b,6,5,4,
1b,2,3,4,6b,7,8,1,4b,3,2,1,{8}5<1[8:1],3h,
1-5[8:1],3h,5-1[8:1],3h,1,3h,4-1[8:1],4,
7-4[8:1],7,2>5[8:1],2,8,8,B2,4,
3,B7,5,6,3h[8:1],5,4,6,
{16}3,5,{8}4,6h[8:1],4,5,5,4>8[8:1],6h,
8-4[8:1],6h,4-8[8:1],6h,8,6h,5-7-1[8:1],5,
3,3,{16}2,3,4,5,8,7,6,5,{8}4/1,2,
8/5,7,4/2,3,5/7,6,{24}3b,2,1,8,7,6,
3b,2,1,8,7,6,{8}2x-6[8:1],1x,{4}8x-4[8:1]*z4[8:1],Cf/8bx-2-4-6-8[2:3],
,,,,,,,4-7-5v8-6[2:3]*-1-3v8-2[2:3],
{1},{4},,,{16}2>5[8:1],
1,2,1,
{4}2b,{8}8-4[8:1],7,{4}8/6,{16}6<1[8:1],5,6,5,
{4}6b,{24}4,3,2,1,8,7,{4}6,{16}7,8,{8}6,
2>5[8:1],1,2x/7-3[8:1],6,{4}8/7x,{16}2,1,{8}3,
7<4[8:1],8,7x/1s5[16:3],2,{4}8/1x,{16}7<4[8:1],8,7,8,
{4}7b,{8}1-5[8:1],2,{4}3/1,{16}3>8[8:1],4,3,4,
{4}3b,{24}5,6,7,8,1,2,{4}3,{16}6,5,{8}7,
4-7b[8:1],4,1-5b[8:1],1,3,3,{16}6xh,5,,5xh,
{8}6,{16}6xh,5,{8}7,8-5[16:1]/4-1[16:1],{4}8bx/4bx,{16}2,3,4,5,
6/1xh,5,4,3,2/8h,3,4,5,6/1xh,5,4,3,2/8h,3,4,5,
6/1x<3[4:1],5,4,3,{24}2xh/E2,E1,E8,E7,E6,E5,{4}E4,{16}7/1h,6,5,4,
3/8xh,4,5,6,7/1h,6,5,4,3/8xh,4,5,6,7/1h,6,5,4,
3/8bx>6b[4:1],4,5,6,{24}7xh/E8,E1,E2,E3,E4,E5,{4}E6,{16}3b,4,3,1,
2,1,2,8,3b,7,4,6,5,6,5,7,8b,7,8,6,
1,5,2,4,{24}3b,E3,E2,E1,E8,E7,{4}E6/Cf,{8}2-5[8:1],2,
8-4[8:1],8,3,3,{16}2,1,2,1,{8}2,3/8,
{16}7,5,{8}6h[8:1],{16}3,4,{8}2,5/1,5/1,{4}5-1[8:1]/1-5[8:1],
,7b/3b,,1/8<4[8:1],
{8}3,2,{4}1-5[8:1],1/8,7-3[8:1]/3-7[8:1],
,5b/1b,{8},,3,5,
{16}4,4,{8}4,{4}3/5<8[8:1],{8}2,2,{4}1s5[8:1]/5-1[8:1],
,B7/B3/E8/E7/E3/E4/D8/A7/D7/D3/A3/D4,{16},,,,6,5,{8}7h[8:1],
{16}3,4,{8}2h[8:1],6,5,4,3,{4}6-2[8:1]/2-6[8:1],
{16},,,,3,4,{8}3,5,4,{12}8h,8,6h,
6,4h,4,2h,2,6h,6,8h,8,4x-1-6-3-8-5-2-7[1:2],{1},{4},,,{6},{4}7bx-5-3-1-7-4-2-8b[2:3],
,,,,,,Cf,
{12}3,4,2,
6,5,7,B1/B2,,B6/B5,,B3,,6,5,7,
3,4,2,B8/B7,,B3/B4,,B6,,2,1,3,
7,8,6,E5/E4,,E6/E3,,E7/E2,,{4}E8/E1,
E6/B5/B4/E4,{12}1,8,1,8,1,8,1h[4:3],{24},,,,,,,,,,,,,{8}8-4[8:1],
{4}8x,{12}2,,5,
{4}4h[2:1],{24}8b,1,{6}2,{24}8b,7,{12}6,{24},,1b/2b,3/8,{6}4/7,
{24}8b/7b,6/1,{12}5/2,,6h[12:1],3,3,5h[12:1],2,2,4,,5,
{4}4h[2:1],{24}A8,A7,{6}A6,{24}A8,A1,{12}A2,,3h[12:1],6,6,
4h[12:1],7,7,5x,4x,3x,2x/6xh,1x,8x,7x/3xh,,4,
{4}5h[2:1],{24}1b,2,{6}3,{24}1b,8,{12}7,,3h,4,5,
3h,4,5,{24}1bh/8bh,7/2,{6}3/6,{24}5bh/4bh,3/6,{12}2/7,,8/1,,4,
{4}5h[2:1],{24}A1,A2,{6}A3,{24}A1,A8,{12}A7,,6h,5,4,
6h,5,4,{24}8bh/7bh,6/1,5/2,4/3,,,5bh/4bh,3/6,2/7,1/8,{48},,,,{16}2b-6[16:1],,,7b-4[16:1],
,,{8}1b-5b[16:1],{4}8b,{16}7b-3[16:1],,,2b-5[16:1],,,{8}8b-4b[16:1],
{4}1b,{24}1,8,1,8,1,8,1,8,1,8,1,8,{4}1b>8q1[2:3],
,,,,,,,8w4[9.3659##0.2927],
,,,,,,,8w4[7.0244##0.2927]*w4[7.0244##0.2927],
,,,,,,,8w4[4.6829##0.2927],
,,,,,,,8w4b[2.3415##0.2927],
,,,,,,,8xw4b[0##0.2927],
,,,3h[2:1]/4b<5<6<7>8>1>2>3<4[2:9],
,,,4h[2:1],
,,,5h[2:1],
,,,7h[2:1],
,,,1h[2:1],
,,,8<4[2:1],
,4z8[2:1],,8-2-4[2:1],
,4pp1[2:1],,1<5[2:1],
,5qq8[2:1],,8w4[2:1],
,,,8/1,
{8}6,4,5,3,6-1[8:1],5,{4}4,
{8}3,5,4,6,3-8[8:1],4,{4}5-1[8:1],
5,{16}3,7,3,7,2,8,2,8,{4}1<6[8:1],
1>4[8:1],1s5[8:1],1b,{8}6,6,
5/6,6,6/7,6,{4}B8/B7/D8/A7/E8/A8/D1/A1/E1,{8}3,3,
3/4,3,3/2,3,{4}B2/A2/E2/D2/A1/D1/B1/E1/A8,{8}3,3,
2/4,2/4,6,6,7/5,5/7,{16}2,1,3,8,
1,7,2,6,3,5,4,6,3,7,2,8,{4}Ch[1:1]/1xz5[2.0488##0.1463]*-5[2.0488##0.1463],
,,,{32}1,2,3,4,5,6,7,8,
1,2,3,4,5,6,7,8,1,2,3,4,5,6,7,8,{4}1b/Cf,{16}6,5,3,4,
6,5,3,4,7,6,2,3,7,6,2,3,7,6,5,4,
3,4,5,6,7,6,5,4,3,4,5,6,8,7,1,2,
8,7,1,2,7,6,2,3,7,6,2,3,7,6,5,4,
3,4,5,6,7,6,5,4,3,4,5,6,{8}8-4[8:1]*-5[8:1],1,
{4}8,{8}3,3-8[8:1],4,3,,6,
4,5-8[8:1],4,5,2-6[8:1],1,{4}2,
{16}7,7,{8}8,{4}6bxh/1bxh,{16}2,2,{8}1,{4}3bxh/8bx-6[8:1]*-5[8:1],
8b-2[8:1]*-3[8:1],8b-4[8:1],8b/Cf,{16}2,3,4,5,
6/1bh,5,4,3,2/8,3,4,5,6/1bh,5,4,3,2/8,7,6,5,
4/8b,3,2,1,8/4,7/3,6/2,5/1,{4}8xh[8:1]/4xh[8:1],{16}7/1,6,5,4,
3/8bh,4,5,6,7/1,6,5,4,3/8bh,4,5,6,7/1,2,3,4,
5/1b,6,7,8,1/5,2/6,3/7,4/8,{4}5xh[8:1]/1xh[4:1],{24}5,6,7,8,1,2,
3,4,5,6,7,8,{4}5/1w5b[8:1],1b,{16}8,1,4,3,
5,4,6,5,{4}6h[4:1],{16}8,7,1,8,{4}2-5[8:1]*-7[8:1],
2,{16}6,4,6,4,{4}6h[4:1],1h[4:1],
{16}7,3,7,3,{4}E6/E2,{8}4/8,4/8,{4}8s4[8:1]/4-8[8:1],
,6b/2b,,8/1,
{8}6,6,4,4,5,5,{4}3-7[8:1]/7-3[8:1],
,5b/1b,{16}7-4[8:1],8,6,8,{4}7,
{16}2>5[8:1],1,3,1,{4}2,{16}6,5,6,5,{4}6b-2[8:1],
5b-1[8:1],4b-8[8:1],3b-7[8:1],6bp2b[8:1],
5bp1b[8:1],4bq8b[8:1],3b,{8}5,4/6,
{16}7,8,{8}6h[8:1],1,8/2,{16}3,4,{8}2h[8:1],6,5/7,
{16}8,1,{8}7h[8:1],3,4/2,{16}1,8,{8}2h[8:1],{16}5,5,5,5,
5,5,5,5,5b-1[8:1],5b,5b,5b,{4}5b,{12}7-4[12:1]/3-8[12:1],3/7,3/7,
{4}7b/3b,{12}6-1[12:1]/2-5[12:1],6/2,6/2,{4}6b/2b,{12}3/7,3/7,7/3,
{24}6b/2b,5b/1b,{12}4b/8b,,1,4,3,8,5,6,B2/E3,,E7/B6,
,E1/B8/B1,{48},,,,{16}6h,4,8h,2,5h,3,6h,4,{4}8xz4>5[2:3]*-4>5[2:3],
{1},{4},,,{32}1b/8b,
7b/2b,6b/3b,5b/4b,
E
