&title=What's up, people?!
&artist=マキシマムザホルモン
&first=-0.485
&des=Loka
&des_5=
&lv_5=14
&inote_5=(161){4},,{8}2/5,5/2z6[8:9],{16}3,4h[16:23],{1},{4},,{8},7/4,
4/7s3[8:9],{16}6,5h[16:27],{1},,{32}1b,
2,3,4,
5,6,7,8,1,2,3,4,5,6,7,8,1,2,3,4,5,6,7,8,1,2,3,4,5,6,7,8,1,2,3,4,
5,6,7,8,1,2,3,4,5,6,7,8,1,2,3,4,5,6,7,8,1,2,3,4,5,6,7,8,1,2,3,4,
5,6,7,8,1,2,3,4,5,6,7,8,1,2,3,4,5,6,7,8,1,2,3,4,5,6,7,8,1,2,3,4,
5,6,7,8,1,2,3,4,5,6,7,8,{8}1s5[8:1],,1/6,{16},,{32}8b,7,6,5,
4,3,2,1,8,7,6,5,4,3,2,1,8,7,6,5,4,3,2,1,8,7,6,5,4,3,2,1,8,7,6,5,
4,3,2,1,8,7,6,5,4,3,2,1,8,7,6,5,4,3,2,1,8,7,6,5,4,3,2,1,8,7,6,5,
4,3,2,1,8,7,6,5,4,3,2,1,8,7,6,5,4,3,2,1,8,7,6,5,4,3,2,1,8,7,6,5,
4,3,2,1,8,7,6,5,4,3,2,1,8,7,6,5,4,3,2,1,{8}8,,6h[8:1],
5h[8:1],{16}7,4,,1/8,{8}3h[8:1],4h[8:1],{16}2,5,,8/1,{8}4h[8:1],
6h[8:1],{16}5,7,,1/8,{8}8/1>6[16:3],2/7,{4},{16}7,8,
{8}6h[8:1],{16}5,7,,5/4,2,1,{8}3h[8:1],{16}4,2,,5/4,7,8,
{8}6h[8:1],{16}5,7,,1/8,{8}1/8,{4}7/2h[4:1],{16}4,3,5,4,
6,5,{8}8/7,{16}5,6,4,5,3,4,{8}2/1,{16}7,8,6,1,
5,2,{8}3/4,{16}6,5,{8}7/4,{4}4/7,{16}5,6,4,5,
3,4,{8}1/2,{16}4,3,5,4,6,5,{8}7/8,{16}2,1,3,8,
4,7,{8}6/5,{16}3v8[8:1],4,{8}2/5,3,7h[48:1],{16},,{24}1/6,2,3,
{8}4,{24}3/8V62[16:3],7,6,{8}5,2/8,{4}1<6[32:3],{24}1/2,3,4,5,{16},{48},{24}2b/1b,
3/8,4/7,5/6,{16},{48},{8}1/2,{24}8/3>8[32:3],7,6,{8}5,{24}3b/7b,6,5,{8}4,{24}1/7,2,3,
{8}4,{24}2/8qq3[4:1],7,6,{8}5,8/3,{4}1-5[8:1],1/8<3[4:1],
{8}3/8,2h[16:1],2,8-3[8:1]*-4[8:1],,8b,{16},,{24}8/3,7,6,
{8}5,{24}6/1V37[16:3],2,3,{8}4,7/1,{4}8>3[32:3],{24}8/7,6,5,4,{16},{48},{24}7b/8b,
6/1,5/2,4/3,{16},{48},{8}8/7,{24}1/6<1[32:3],2,3,{8}4,{24}6b/2b,3,4,{8}5,{24}2/8,7,6,
{8}5,{24}1/7,2,3,{8}4,{32}8,7,6,5,1w5[8:1],2,3,4,{16},,{4}1b,
{8}3/7,1h[8:1],{16}4,2,{8}5,7/3,{32}2-6[8:1],3,4,5,1,8,7,6,{8}2b/5h[1:1],
,7,7,7,7,7,7,7,
8,1,2,8,1,8/2,8/2h[4:5],3,
3,3,3,3,3,3,3,3,
4,5,6,4,5,4/6,4/6,1/8,
2,3/4,5,5/6,7,3/4,3/4,1,
8/7,6,5/4,3,2,1/8,1/8,7/5,
4,3/5,6,2/8,3,4/6,4/6,7,
2/4,3,6,5/7,8,3/1,3/1,2/5,
1,4/7,8,1/2-4[8:1],4-8[8:1],2/5,7,6,
4/1,2,8/7-4[8:1],4-6[12:1],7/2,1,2,3/7,
1,3/7,5,3/7-4[8:1],4-8[8:1],7/1,3,2,
4/7,3/6,5/2-6[8:1],3/6-4[12:1],2/1,7,8,1/3h[8:1],
2,4/6h[8:1],5,4/3h[8:1],1,5/6h[8:1],8,3/1h[8:1],
2,6/8h[8:1],7,5/3h[8:1],2,4/6h[8:1],7,{16}2b,1,
2,1,3b,8,3,8,1b,6,1,6,2b,7,2,7,3b,6b,
4,5,2b,7b,4,5,{8}1b,4/3b,8/7b,{12}5/2,1,4/7,
8,4/3,2,6/5,7,1/3,4,8/6,{24}5,1,5,1,5,{96}1,{64},{192},{96}2,{64},{192},{32}3,4,
{12}5/7,8,2/1,3,8/7,6,3/4,2,8/6,5,1/3,{24}4,8,
4,8,4,{96}8,{64},{192},{96}7,{64},{192},{32}6,5,{12}4/2,1,5/7,8,4/3,2,5/6,7,1/3,
4,5/6,7,{24}8,4,8,4,8,4,{32}8,7,6,5,{24}4/2,,1,,6/5,,7,,4/3,
,2,,1/7,,6,,5/2,,3b/4b,,5b/2b,,1b/6b,{16},{48},{3}8b/7h[96:23],
{32}6/2,7/3,8/4,1/5,{8}2h[8:3]/6h[8:3],{4},,{8}6/1,7/2,
{4}8/3h[6:1],{12}1,1,2/1h[12:5],{4},{12},{6}2b,
{12},3b/4b,{16},{48},{24}2,3,4,5,{16},{48},{24}1>4[32:3],8,7,6,{16},{48},{24}1b/8b,7,6,5,{4},{6}2b/7b,
