&title=河童ノ輪舞曲
&artist=Sound Refil
&first=0.04
&des=円舞曲
&lv_5=13
&inote_5=(80){1},
{8}4x,4x,4x,
{24}5h[8:3],,,,,,4,,,3h[8:3],,,,,,4,,,6h[8:3],,,,,,5,,,2h[8:3],,,4,,,6pp4>5[8:4],,,8h[8:3],,,,,,,,,,,,,,,,,,3h[8:3]/4,,,,,,,,,2b,,,4/1b,,,7b/5,,,
{24}4h[8:3],,,,,,5,,,6h[8:3],,,,,,5,,,3h[8:3],,,,,,4,,,7h[8:3],,,5,,,3,,,1h[8:2],,,5,,E5,E7,,E3,8h[24:3],,D5,E4,,E6,1h[8:2],,,4-8[12:1],,,2-5[12:1],,,4,,,2,,,6b,,,,,,
{8}3,4-8[12:1],5h[8:1],,7<4pp8[8:3],1h[8:3],,,,5h[4:1],,7,4q8[12:1],2h[8:1],,3>5[4:1],7h[8:4],,,,3,5h[8:2],E4,E6,7,4<7[12:1],2h[8:1],,5qq2[8:2],8h[8:4],,,,3h[4:1],,4,5-1[12:1],6h[8:1],,5<4[8:6],3qq6[8:5],,,,,,,,
{8}5h[8:1],6V42[24:6],4-8-6-4[24:7],,,,3h[8:2],2-5[12:1],1-4[12:1],,,2h[8:1],4V61[24:6],6-2-4-6[24:7],,,,7h[4:1],8>3[12:1],1qq6[4:1]*pp4[4:1],,,,,
{8}5h[8:1],2V46[24:6],4-8-2-4[24:7],,,,6h[4:1],5p1[12:1]b,4q8[12:1]b,,,3h[8:1],4V62[24:6],6,8-2-4[24:6]*-2-5[24:7],,,,,
{24},,,E4,,E6,D5f,,,,,,
{8}1x/8x,2>4[16:1],2v5[12:1],2,,1x,3,6>4[16:1],6<8[12:1],6p2[12:1],6x-1[12:1],,,2h[8:1],7<5[16:1],4,3h[8:1],2<3p5>1[8:5],8,6h[8:3],,,,,,7-3[12:1]/1-5[12:1],3-8[12:1]/5-8[12:1],7x/1x,,,2x/6x,4p8[12:1]*q8[12:1],1-6-3[4:1]/7-2-5[4:1],,,,,4h[8:1],2>5[16:1],7,6h[8:1],7>6q4-6<8[8:5],1,3h[8:3]b,,,,,
{8}2x,
{24}4/5,,,4>2[16:1]/3,,6,5,,,4/8,,7,1,,,2/6,,,2/4,,,2/8-2-4-1[24:8]b*V64[48:11],,,6V47[24:5]/2,,,,,,,,,,,,
{24}2/6,,3,4>2[16:1],,,5/6,,,1q5[12:1]/4,,,8,,,1<5[32:5]/7>2[32:4],,,6>3[32:3],,,,,,,,,1h[8:1],,,4<7[12:1],,,5,,,4qq1[16:4],,,2,,,8,,,6,,,
{16}5,2,4,3,6-1[12:1],5,7,4,6,,3<6[12:1],4,2,5,3,,8V64[4:1],,6V48[24:7],,4V28[4:1],,2-8-6-4-2-8-6[16:12]*-8s4[16:6]b,,,,,,,,,,,,E7,,D5,,E3,,
{24}4h[24:3]/5,,B6,E5,,3,4,,2,5h[24:3],,B3,E5,,6,5-7-4-8[8:3],,7,4h[8:2],,,,,,,,,,,E3,D4,,E7,D6,,4,5h[24:3],,,3>8p4v7[8:3],,2/4h[24:4],,,,,,,,,,,,,6h[8:3],,,,,,4,,,3b,,,1b/3,,,7b/4,,,
{24}5h[24:3],,B3,E5,,6,5,,7,4h[24:3],,B6,E5,,3,4-2-5-1[8:3],,2,5h[8:2],,,,,,,,,,,E7,D6,,E3,D4,,5,4h[24:3],,,6<1q5v2[8:3],,7/5h[24:4],,,,,,,,,,,,,3h[8:3],,,,,,5w1[12:1]b,,,8b,,,
