&title=Girls’ Carnival
&artist=ユウカ/PCゲーム「Making*Lovers」OPテーマ
&first=0.56
&des=Ragna
&wholebpm=236
&demo_seek=52.65
&demo_len=31.5
&des_5=Ragna
&lv_5=13+
&inote_5=(236){8}
3,,3,,5,4,,6,,6,4,,5-1[8:1],3,,,
2,,2,,8,1,,7,,7,1,,8-4[8:1],2,,,
3,,3,,6,5,,7,,7,2,,5-1[8:1],4,,,
2,,2,,7,8,,6,,6,{16}1h,2h,3h,4h,5h,6h,7h,8h,1h,2h,3h,4h,
{8}5-1[8:1]/6,,8,,4-8[8:1]/3,,1,1-5[8:1],
,,7-4[8:1],,3-8[8:1],,6-1[8:1],,
2-5[8:1],,7-4[8:1],,3-8[8:1],,5,5qq1[16:8]*q8[16:8],
,,,,,,,,
2-5[8:1]/7-4[8:1],,,,3-6[8:1]/6,,,8qq4[16:9],,,4,,3,,2,,
1-5[8:1]/5,,7,,8-4[8:1]/4,,2,,
1-5[8:1]/5,,7,,8-4[8:1]/4,,2,,
1h[4:1]/5h[4:1],,,36,,,1bpp4[16:8]/8bqq5[16:8],,,,,,,,,,
36,,74,,35,,2,2,4,,31,,18,,27,,
6,6,5,,74,,18,,3,3,4,,2,2,8,,
75,,54,,36,,2,2,1,,38,,17,,75,,
4,4,5,,36,,12,,7,7,8,,5,5,4,,
24,,18,,72,,6,6,5,,42,,65,,72,,
8,8,1,,75,,54,,2,2,4,,35,,57,,
8,8,1,,27,,83,,4,4,5,,1,1,6,,
3,3,1,1,5,5,6,6,{16}1,2,3,4,8,7,6,5,1,2,3,4,8,7,6,5,{4}
1^3[8:1]/4,6,8^6[8:1]/5,3,
1^3[8:1]/4,6,8^6[8:1]/5,3,
1^4[8:1]/4,6,8^5[8:1]/5,3,
1^4[8:1]/4,6,8^5[8:1]/5,3,
4^6[8:1]/1,3,5^3[8:1]/8,6,
4^6[8:1]/1,3,5^3[8:1]/8,6,
4^7[8:1]/1,3,5^2[8:1]/8,6,
4^7[8:1]/1,3,5^2[8:1]/8,6,
{1}1b>1[4:5]/5b<5[4:5],,8b<8[4:5]/4b>4[4:5],,
1b>5[16:6]/5b<1[16:6],8b<4[16:6]/4b>8[16:6],
{2}1^4[8:1]/5^8[8:1],1^6[8:1]/5^2[8:1],
1^3[8:1]/5^7[8:1],4^2[8:1]/8^6[8:1],
{8}1-5[8:1]/5,,,8h[8:3],,,4,,
2b/6b,,,,{16}1h/5h,2h/6h,3h/7h,4h/8h,{8}1h/5h,,
3-8[8:1]/7,,4,,6-1[8:1]/2,,5,5-2[8:1],
,,7-4[8:1],,3-8[8:1],,6-1[8:1],,
2-5[8:1],,7-4[8:1],,3-8[8:1],,6,6qq8[2:1],
,,,,1,,2,,
7-3[8:1]/3,,1,,2-6[8:1]/6,,8,,
7-3[8:1]/4,,8,,2-6[8:1]/5,,1,,
8bp4[8:1]/4bp8[8:1],,,,,,1>5[4:1],,
5<1[4:1],,1>5[4:1],,5<1[4:1],,1>5[4:1],,
5b<3[16:6],,,,,,8<4[4:1],,
4>8[4:1],,8<4[4:1],,4>8[4:1],,8<4[4:1],,
4b>6[16:6],,,,,,1q3[16:7]*qq6[16:7],1,
,,,,,,4,5,
36,,7,8,16,,38,,
24,,5,4,36,,2v1[8:1]/7v8[8:1],,
,,{24}2b/7b,36,5q8[16:7]/4h[24:22],{8},,,,,
,,{16}1h,2h,3h,4h,1h/5h,2h/6h,3h/7h,4h/8h,{8}1h/5h,,
7-4[8:1]/3,,8,,2-5[8:1]/6,,1,1-6[8:1],
,,3-8[8:1],,7-4[8:1],,2-5[8:1],,
6-1[8:1],,3-8[8:1],,7-4[8:1],,2,2qq4[2:1],
,,,,5,,6,,
3-7[8:1]/7,,5,,6-2[8:1]/2,,4,,
3-7[8:1]/8,,4,,6-2[8:1]/1,,5,,
,,7b-4[8:1]/3b-8[8:1],,,,5<1[4:1],,
1>5[4:1],,5<1[4:1],,1>5[4:1],,5<1[4:1],,
1b>7[16:6],,,,,,4>8[4:1],,
8<4[4:1],,4>8[4:1],,8^6[8:1],,4,,
8bp4[8:1]*q4[8:1],,,,8bp4[8:1]*q4[8:1],,,,
8bp4[8:1]*q4[8:1],,,,2,1,38,,
45,,7,8,16,,3,4,
25,,6,5,74,,1,8,
2/7^1[8:1],,4,,7/2^8[8:1],,5,,
2/7^1[8:1],,4,,7/2^8[8:1],,5,,
{16}7h/2h,8h,1h,2h,3h,4h,5h,6h,7h/3h,2h,1h,8h,7h,6h,5h,4h,
3h/6h,7h,8h,1h,2h,3h,4h,5h,3h/6h,,,,,,,,
2h/7h,1h,8h,7h,6h,5h,4h,3h,2h/6h,7h,8h,1h,2h,3h,4h,5h,
6h/3h,2h,1h,8h,7h,6h,5h,4h,{4}3h/6h,,
2-5[8:1]/6,1,7-4[8:1]/3,8,
5-8[8:1]/1,2,4-1[8:1]/8,7,
2-6[8:1]/6,1,7-3[8:1]/3,8,
5-1[8:1]/1,2,4-8[8:1]/8,7,
1>5[8:3]/5<1[8:3],,,,
{8}8h/4h,7h/3h,6h/2h,5h/1h,6h/2h,7h/3h,8h/4h,,
7h[4:1]/3h[4:1],,,26,,,1b/5b<4[1:3],,,
{1},,,E
