&title=少女の舞葬
&artist=プラスチックと女の子
&first=1.86
&des=Alix
&lv_5=13+
&inote_5=(134)
{16}
3,,3,4,3,,5h[8:2],,4,,2h[8:2],,3,,8,,1,,1,7,1,,2h[8:2],,5,,6,,74,,,,
6,,6,5,6,,4h[8:2],,7,,6h[8:2],,8,,1,,72,,7,5,7,,3h[8:2],,8,,7,,64,,,,
3,3,4,3,,6,5,,4,4,5,4,,7,6,,1,1,8,1,,7,8,,3,3,4,3,,5,4h[8:1],,6,,6,5,6,,4h[8:2],,1,,5h[8:2],,8,,1,,73,,3,4,3,,25,,81,,74,,26,,,,
8b/4b,,6,6,75,,3,,42,,6,,75,,64,,53,,4,4,53,,62,,84,,73,,6/2-5[8:1],,,,8,,6,6,1,,8,,75,,3,,24,,53,,64,,5,5,64,,82,,7-4[8:1]/3-8[8:1],,15,,,,,,
62,,4,4,53,,6,,75,,3,,14,,25,,63,,4,4,53,,64,,8,,71,,6-3[8:1]/2,,85,,1,,2,2,8,,7,,65,,1,,43,,8,,72,,5,5,64,,53,,8-4[8:1]/1-5[8:1],,63,,,,,,
72,,3,4,1,,8,,7/2h[8:1],,6,5,8,,1,,7h[8:1]/2,,3,5,1,,8,,7/2h[8:1],,6,4,8,,1,,72,,
5,1,6h[8:1],,4,7,5h[8:1],,8,3,5h[8:1],,1,4,2,5,3,6,4,7,5,8,6h[8:2],,2,,
{32}
2,1,8,7,6,5,4,3,{16}
2v4[8:4]*v7[8:12],,,,,,,,,,,,,,,,5v8[8:4],,,,,,,,,,,,,,,,
{4}
4b-1[8:1],2-7[8:1]/4,8-5[8:1]/2,1-4[8:1]/8,6-3[8:1]/1,2-7[8:1]/6,1-4[8:1]/2,1/3-6[8:1],2-5[8:1]/3,8-3[8:1]/2,7-4[8:1]/8,2-5[8:1]/7,6-3[8:1]/2,1-4[8:1]/6,8-5[8:1]/1,
{8}
2-7[8:1]/8,3,{4}4-1[8:1]/2,5-8[8:1]/4,6-3[8:1]/5,7-2[8:1]/6,7/3-6[8:1],1-4[8:1]/3,6-3[8:1]/1,2-5[8:1]/6,1-6[8:1]/2,7-4[8:1]/1,8-3[8:1]/7,8/5-8[8:1],3-6[8:1]/5,1-6[8:1]/3,
{8}
1/3-8-3[8:2],2,35,6,
{16}
7b-4[8:1],,8,8,7/1-5[8:1],,2,,6-3[8:1]/1,,7,,2-7[8:1]/6,,1,,6<1[8:1]/2,,5,5,4-8[8:1]/6,,3,,7-3-7[8:2]/4,,6,,1,,1,,2-5[8:1],,1,1,8<5[8:1]/2,,7,,3-7[8:1]/8,,2,,5-8[8:1]/3,,4,,2-6[8:1]/5,,7,7,8-5[8:1]/2,,1,,4-1-4[8:2]/8,,3,,7,,7,,6-2[8:1],,5,5,4-1[8:1]/6,,3,,7-3[8:1]/4,,8,,4>1[8:1]/7,,5,,8-5[8:1]/4,,7,7,4-1[8:1]/8,,3,,4/6-2-6[8:2],,7,,4,,4,,3,,35,,6-1[8:1],5,,5,6,,4,,3,5,,5,3,3,8,8,{32}1,2,{16}3,5,5,{32}
4,3,2,1,8,7,6,5,84,1,2,3,4,5,6,7,{16}8b-4[8:1]/4b,,,,2-5[8:1]/8,,3,,8-4[8:1]/2,,7,,81,,2,,3-8[8:1],5,4,5,3,,6-4[8:1],,
7-3[8:1],,,,,,,,8-3[8:1],,7,,8/6-1[8:1],,5,,4-7[8:1]/6,,3,,42,,1,,8,8,2,,1-5[8:1],,8,,1>4[8:1],,7,,1b,,,,
7-3[8:1],,6,6,2-5[8:1]/7,,1,,8-3[8:1]/2,,7,,86,,5,,6-1[8:1],4,5,4,6,,3-5[8:1],,2-6[8:1],,,,,,,,
1-6[8:1],,2,,3-8[8:1]/1,,4,,5-2[8:1]/3,,6,,
57,,8,,1,6,2,5,3>8[8:1],,4,5,3-6[8:1],,7,,
3b,,,,
8b-5[8:1],,1,2,8>3[8:1],,3,,8<5[8:1],,5,,8,,1,,3,4,2,5,1-5[8:1],,7-3[8:1],,1,,7,,8,,,,
2,1,3,4,1,8,4,5,8,7,5,6,1,8,4,5,2,7,4h[8:1],,6-1[8:1],,7,,6-3[8:1],,2,,6b,,,,
1-4[8:1],,8,7,1<6[8:1],,6,,1>4[8:1],,4,,1,,5,,2,4,3,5,1-4-2[8:2],,8,,7-4-6[8:2],,8,,,,,,
1,,18,,7-4[8:1],8,,8,7,,2,,3,5,,5,4,6,8,7,3,4,1,8,
{32}
2,3,4,5,6,7,8,1,2b/6b,,,,,,,,
{16}
4,5,4,5,3,5,3,5,7,5,7,5,3,5,3,5,4,6,4,6,4,8,4,8,2,8,2,8,6,8,6,8,4,7,4,7,5,6,5,6,5,4,5,4,5,8,5,8,3,4,3,4,2,5,2,5,2,8,2,8,4,8,4,8,
5h[16:1],6,5h[16:1],6,5h[16:1],7,5h[16:1],7,3h[16:1],7,3h[16:1],7,3h[16:1],6,3h[16:1],6,
4h[16:1],8,4h[16:1],8,4h[16:1],2,4h[16:1],2,5h[16:1],6,5h[16:1],6,
8h[16:1],7,8h[16:1],7,
3h[16:1],4h[16:1],3h[16:1],4h[16:1],3h[16:1],2h[16:1],3h[16:1],2h[16:1],3h[16:1],5h[16:1],3h[16:1],5h[16:1],4h[16:1],5h[16:1],4h[16:1],5h[16:1],6h[16:1],5h[16:1],6h[16:1],5h[16:1],3h[16:1],5h[16:1],3h[16:1],5h[16:1],4h[16:1],6h[16:1],4h[16:1],6h[16:1],8h[16:1],6h[16:1],8h[16:1],6h[16:1],
2,,4,3,4,,4,,2,,1,,8,,7,,36,,5,4,5,,5,,3,,2,,1h[8:2],,,,8,,6,5,6,,4,,3,,7,,8,,1,,72,,
6,4,6,,3-1[8:1],,7-5[8:1],,3,,7-3[8:1],,,,
