&title=Demiurge
&artist=RABPIT
&first=0
&des=Tachi.mia
&lv_5=14
&lv_6=13+
&inote_5=(111){1},,,,
{48},
{8}E6,B5,B4,E4,E6,B5,B4,E4,
E6,B5,B4,E4,E6,B5,B4,E4,
E7,B6,B5,E5,E7,B6,B5,E5,
E7,B6,B5,E5,E7,B6,B5,E5,
E1,B1,B2,E3,E1,B1,B2,E3,
E1,B1,B2,E3,E1,B1,B2,E3,
{8}E8,B8,B1,E2,E8,B8,B1,E2,
E7,B7,B8,E1,B6,B5,B4,B3,
{8}8h[2:1],,2,3,4h[2:1],,5,5,5h[2:1],,3,2,1h[2:1],,8,8,8h[2:1],,4,5,6h[2:1],,8,1,2h[2:1],,4,4,4h[2:1],,2,1,8bh[2:1],6,5,4,3h[2:1],6,
7,8,1h[2:1],2,3,4,5h[2:1],
6,7,8,1h[2:1],5,4,3,2h[2:1],7,6,5,4-8[8:1],3,3,3,5-1[8:1],6,6,6,
{1}Chf[2:1],
{8}3,4,5,6,6,5,4,3,
{2}Ch[2:1],
{8},,3,
{16}5,4,6,,3,4,2,,6,5,7,,
{8}1,2,3,4-8[8:1],,,5,5,,6,5,4,
{16}4,5,3,,5,4,6,,1,8,
{8}2,8,7b-4[8:1],7,1-4[8:1],1,8-5[8:1],8,2-5[8:1],2,6,7,8,
{16}5,6,4,3,
{32}5,6,4,3,5,6,4,3,5,6,4,3,
{48},
{1}8bh[32:24],1V35[1:1],7h[1:1],
{2}4-1[2:1],5h[2:1],1-5[2:1],,8h[1:1],2xbh[2:1],
{48},37,46,5pp8[1:1]*qq2[1:1],,
{1},
{2},
{8},,,3,,3,,5,6,7,8,
{16}3,3,3,6,
{16}5,4,2,2,7,7,
{32}3,5,
{16}3,8,8h[32:6],3,3h[16:7],
{48},7,6,5-1[2:1],,,
{2},
{8},
{48}2,3,4-8[2:1],,,,
{4},6h[8:3],,
{8},5-8[8:1]/1q3b[1.08##2.2],,
{1}5bq7[1:1],
{2},
{8}8,1,2,3,
{16}7bh[4:1],,5,5,5,,2h[4:1],,4,4,4,,5,6,7,8,8/1-5[16:1],,4,4,4,,6-4[16:1],,3,3,3,,
{32}8x,7x,1x,2x,7x,6x,2x,3x,
{16}8b-5[8:1],,4,3,2,,2-5[8:1],,5,6,7,,7,7,3,6-2[8:1],4,,3,4,3,,4-1[16:1],,7,6,5,,
{32}7x,6x,2x,3x,8x,7x,1x,2x,
{16}5bh[4:1],,3,2,1,,4h[4:1],,6,7,8,,5,3,4,2,3-7[16:1],,1,1,1,,5-1[16:1]/4,,6,6,6,,
{32}7,6,2,3,6,5,3,4,
{16}5b-8[8:1],,4,3,2,,3b-8[8:1],,5,6,7,,6b-1[8:1],,4,3,2,,4b-1[16:1],,7,6,5,,6-4[16:1],,1,,
{32}1,2,3x,2x,1x,8x,7x,6x,
{16}1b,,6,4,5h[8:1],,3,3,4,4,2h[8:1],,7,7,5,7,4,6,3-5[16:1],5,2,,8,8,6-4[16:1],7,5,,
{48}3x,2x,1x,8x,7x,6x,3x,2x,1x,8x,7x,6x,
{16}1b-4[8:1],,5,5,5,,7-4[8:1],,3,3,3,,2-5[8:1],,6,7,8,,6-3[8:1],,3,2,1,,2,2,4,4,
{48}7x,8x,1x,2x,3x,4x,7x,8x,1x,2x,3x,4x,
{16}1b,,3,5,4h[8:1],6,6,6,5,5,7h[8:1],,2,2,4,2,5,3,6-4[16:1],4,7,,1,1,3-5[16:1],2,4,,
{48}6,7,8,1,2,3,6,7,8,1,2,3,
{96},
{16}8b-5[8:1],,4,4,4,3,2-5[8:1],2,6,6,6,7,7-4[8:1],7,3,2,1,2,3-6[8:1],5,6,7,8,6,7,7,5,5,
{48}2,1,8,7,6,5,2,1,8,7,6,5,
{32}8b>4[8:1],,,,
48,,,,4x,5x,6x,7x,8<4[8:1],,,,
48,,,,4x,3x,2x,1x,8>4[8:1],,,,
48,,,,4x,5x,6x,7x,8<4[8:1],,,,
48,,,,4x,3x,2x,1x,8>4[8:1],,,,
48,,,,4x,5x,6x,7x,8<4>5[3:4],,,,
{2}8b/4h[1:1],,,
{8}3,4,5,6,
{32}1b<5[8:1]/C,,,,51,,,,5,4,3,2,1>5[8:1],,,,51,,,,5,6,7,8,1<5[8:1],,,,51,,,,5,4,3,2,1>5[8:1],,,,51,,,,5,6,7,8,1<5[8:1],,,,51,,,,5,4,3,2,1>5<4[3:4],,,,
{2}1b/5h[1:1],,,
{16}6,5,4,3,6,5,4,3,
{32}8b>4[8:1]/C,,,,48,,,,4x,5x,6x,7x,8x<4[8:1],1x,2x,3x,48,,,,4x,3x,2x,1x,8x>4[8:1],7x,6x,5x,48,,,,4x,5x,6x,7x,8x<4[8:1],1x,2x,3x,48,,,,4x,3x,2x,1x,8x>4[8:1],7x,6x,5x,48,,,,4x,5x,6x,7x,8x<4>5[3:4],1x,2x,3x,
{2}4h[1:1]/8b,,,
{8}2,1,8,7,
{32}1b<5[8:1]/C,,,,51,,,,5,4,3,2,1>5[8:1],8,7,6,51,,,,5,6,7,8,1<5[8:1],2,3,4,51,,,,5,4,3,2,1>5[8:1],8,7,6,51,,,,5,6,7,8,1<5[8:1],2,3,4,51,,,,5,4,3,2,1>5<4[3:4],8,7,6,
{2}5h[1:1]/1b,,,
{8}E3,B2,B1,E1f,
E
&inote_6=(111){1},,,,
{48},
{2}B1,C,B5,A4,B8,C,B4,A5,
3,C/2,B5/1,A4/8,6,C/7,B4/8,A5/1,
{4}6,1>6[1:1],C/B1,7,B5/B4,8,A4/E4,
{8}1,8,
{4}3,8<3[1:1],C/B8,2,B4/B5,1,
{8}A5/E6,2,1,8,7-4[4:1],
4,3,2,1-4[4:1],5,6,7,8-5[4:1],5,4,3,2-5[4:1],1,8,7,6-3[8:1],6,4-7[8:1],4,5-2[8:1],5,1-4[8:1],1,5-2[8:1],5,3-6[8:1],3,7-4[8:1],7,5-2b[8:1],5,7bV15-8[4:1],,2,3,4h[2:1],,A7,E8,B8,B1,E2,A2,3,4,5,6,1-5-3-8[4:1],,8,7,6h[2:1],,A3,E3,B2,B1,E1,A8,7,6,5,4,8-3-1-5[4:1],,5,4,4h[2:1],,7,7,8,8,1,1,2,2,3,4,5,
{16}4,5,3,5,4,5,3,5,4,6,4,5,4,6,4,5,3,5,4,5,3,5,4,6,4,5,4,6,7,8h[32:26],
{1}1b-5[1:1],7h[32:15],2b-6[1:1],
{2}5h[2:1],,4-1[1:1],,8h[1:1],1xbh[2:1],,,
{8}6q1[2:1],,5,,4,3,4,5,7,
{16}4,5,4,,7,1,8,,2,2,6,,4,4,5,5,1,1,7,5,6,4,5,2,4,3,5,4,7,6,5b-1[2:1],,,
{48},,,
{8}4,4,,,2-5[2:1],,7,7,,,1,,8,,
{1}3p1[1:1]/7q5[1:1],
{2},
{8}8,1,2,3,
{8}2-5[8:1],5-8[8:1],8-4[8:1],6,7,7,3,3h[8:1],
1-5[8:1],5-7[8:1],7-4[8:1],2,3,3,8,8,
{16}25,3,5,4,6,,7,5,6,,2,4,3,3,5,,7,1,6,2,5,3,7,7,
{32}3,4,3,4,
{16}2,2,6,6,1,1,
{8}8b-4[8:1],4-7[8:1],7-2[8:1],3,3,3,4,5,6V84[4:1],6,4-7-5[4:1],4,5-3[8:1],2,2,1,
{16}16,3,4,2,5,,8,7,1,6,2,,5,3,4,4,2,2,6,6,1,1,7,7,
{32}4,5,4,5,
{16}2,2,6,6,3,3,
{8}8b>3[8:1],3<6[8:1],6v4[8:1],1x,2,2,7,7,1>4[8:1],4-7-5[4:1],4,5-2[8:1],8,7,7,3,
{16}35,6,4,7,5,,2,8,1,,6,3,6,4,5,,2,2,7,7,3,3,8,8,
{32}4,6,5,7,
{16}3,3,6,6,1,1,
{8}5b-1-7[4:1],5,7-4-8-3[8:3],7,4,3,2,1x,1>5[4:1],1,5V74[4:1],5,4x-8[8:1],1,8,7,
{16}62,3,7,4,8,5,1,4,8,3,7,1,
{32}6,4,5,3,
{16}7,7,4,4,5,5,1,1,6,6,
{32}3,4,2,5,
{16}2,2,7,6,1,2,
{8}8b>4[4:1],8,4<8[4:1],4,8>4[4:1],8,4<8[4:1],4,8>2-4[4:1],8,4<6-8[4:1],4,8V24[4:1],8,4<4<2[1:1],4,
{1},
{2}4h[2:1],
{8}5,5,3,3h[8:1],1b<5[4:1],1,5>1[4:1],5,1<5[4:1],1,5>1[4:1],5,1<7-5[4:1],1,5>3-1[4:1],5,1V75[4:1],1,5>7<7[1:1],5,
{1},
{2}4h[2:1],
{4}5,5h[4:1],
{8}4b<8[4:1],4,8>4[4:1],8,4<8[4:1],4,8>4[4:1],8,4<6-8[4:1],4,8>2-4[4:1],8,4V68[4:1],4,8>8>4[1:1],8,
{32}A4,A5,A6,A7,
{2},
{8},,,
{2}8h[2:1],
{8}1,2,7,6h[8:1],5b>1[4:1],5,1<5[4:1],1,5>1[4:1],5,1<5[4:1],1,5>3-1[4:1],5,1<7-5[4:1],1,5V31[4:1],5,1<4>4[1:1],1,
{32}A6,A5,A4,A3,
{8},,,
{2},8h[2:1],
{4}4h[4:1],
{8}5,E1f,
E
