&title=Valhalla:0
&artist=Juggernaut.
&first=0
&des=Tokyo&Saurb
&lv_5=14+
&inote_5=(200)
{1},,
{1}2-5-8[1:1],
{8}8-5[2:1],,,,5>5[1:1],,,,C,,,,,,,,
{1}8<4[1:1],
{8}4>7[1:1],,,,,,,,7<5[2:1],,,,C,,,,
4h[4:7],,,,,,,,5h[4:3],,,,,,,,
{8}2,3,4,3,7,6,5,6,
{8}2,3,4,3,7,6,5,6,
45,3,45,6,45,3,45,6,
35,2,46,7,35,2,46,,
{4}2-5[8:1]/7,2/8-4[8:1],1-5[8:1]/8,1/7-4[8:1],
{4}2-5[8:1]/7,2/8-4[8:1],1-5[8:1]/8,1/7-4[8:1],
{8}2-5[8:1],2,2/8-4[8:1],8,1-5[8:1]/8,1,1/7-3[8:1],7,
1bw5[2:1],,,,,,
{8},,
2>7[4:1],,7<2[4:1],,,,,,
3>6[4:1],,6<3[4:1],,,,,,
{16}2,3,4,5,1,8,7,6,4,3,2,1,7,6,5,4,8,1,2,3,5,6,7,8,2,3,4,5,
8h[6:1],,,,
{8}3,6,3,6,3,6,3,{16}7,2,{8}7,2,7,2,7,2,7,1,
{16}1,8,1,8,1,8,1,8,
{96}2b,,,3,,,4,,,5,,,,,,,,,8b,,,7,,,6,,,5,,,,,,,,,1b,,,2,,,3,,,4,,,,,,,,,7b,,,6,,,5,,,4,,,,,,,,,2x,,E3,,B3,,B4,,E5,,,,8x,,E8,,B7,,B6,,E6,,,,
{8}Ch[4:1],,,,
{16}1x/8x,,7,5,7,5,7,,3,4,,6,5,,4/6,,
{16}3/5,,2,4,2,4,2,,3/5,,6,5,7,,3,4,
{16}7,,2,4,3,4,2,,7,5,6,5,7,,6/3,,
{16}2,4,3,5,4,6,5,7,1,8,1,,7b/2b,,,,
{16}2,7,2,7,1,8,1,8,2,7,2,7,1,2,3,4,
{16}8,7,6,5,1,2,3,4,6,3,6,3,5,4,5,4,
{16}6,3,6,3,5,6,7,8,4,3,2,1,5,6,7,8,
{16}2,5,2,5,4,7,4,7,3,6,3,6,,,,,
{8}7bh/1-5[8:1],,1-3[8:1]/8x,7x,8x/1-5[8:1],,8b/1>3[8:1],,
{8}6h/1-5[8:1],,1-3[8:1]/7x,6x,7x/1-5[8:1],,7b,,
{8}2bh/8-4[8:1],,8-6[8:1]/1x,2x,1x/8-4[8:1],,1b/8<6[8:1],,
{8}3h/8-4[8:1],,8-6[8:1]/2x,3x,2x/8-4[8:1],,2b,,
{32}1/2,,3/8,,4/7,,5/6h[8:1],,,,,,,,,,4/7,,,,,,,,4>7[8:1]/7h,,,,,,,,4bx/7,,,,,,,,
{64}1h/5<2[8:1],,,,,,,,,,,,,,,,5bx/2,,,,,,,,,,,,,,,,,,,,,,,,,,,,,,,,
{32}8/7,,6/1,,5/2,,4/3h[8:1],,,,,,,,,,5/2,,,,,,,,5<2[8:1]/2h,,,,,,,,5bx/2,,,,,,,,
{64}8h/4>7[8:1],,,,,,,,,,,,,,,,4bx/7,,,,,,,,,,,,,,,,,62,,,,
,,,,,,,,,,,
{16}1,2,3,4,51,2,3,4,5h[8:1]/1h[8:1],,,,15,,,,15,26,37,48,1h[8:1]/5h[8:1],,,,15,48,37,26,1h[8:1]/5h[8:1],,,,
{16}8x,7,6x/2x,3,4x/8x,,,,84,73,62,51,8h[8:1]/4h[8:1],,,,84,51,62,73,8h[8:1]/4h[8:1],,,,
{16}1>4[8:1],,6,,1,,8,,
{16}8,7,6,5,48,7,6,5,4h[8:1]/8h[8:1],,,,84,,,,84,73,62,51,8h[8:1]/4h[8:1],,,,84,51,62,73,8h[8:1]/4h[8:1],,,,
{16}1x,2,3x/7x,6,5x/1x,,,,15,26,37,48,1h[8:1]/5h[8:1],,,,15,48,37,26,1h[8:1]/5h[8:1],,,,
{16}8<5[8:1],,3,,8,,1,,
{16}2xh[8:1]/5h[8:1],,,3h[8:1]/6xh[8:1],,,4h[8:1]/7xh[8:1],,,1h[8:1]/8xh[8:1],,,1/8x,,1x/8,,
{16}2xh[8:1]/7h[8:1],,,3h[8:1]/6xh[8:1],,,4h[2:1]/5xh[2:1],,,,,,,,,,
{16}6,5,6,4,6,3,6,2,6,1,6,8,6,7,,,
{16}3,4,3,5,3,6,3,7,3,8,3,1,3,2,,,
{16}7xh[8:1]/4h[8:1],,,6h[8:1]/3xh[8:1],,,5h[8:1]/2xh[8:1],,,8h[8:1]/1xh[8:1],,,8/1x,,8x/1,,
{16}7xh[8:1]/2h[8:1],,,6h[8:1]/3xh[8:1],,,5h[2:1]/4xh[2:1],,,,,,,,,,
1>1b[2:1]*-3-5-7-1[2:1],,,,,,,,,,,,,,,,
{8}3h[8:1]/6h[8:1],,2h[8:1]/7h[8:1],,1-5[8:1]/8-4[8:1],27,1b>8[1:2]/8b,
{16}Cf,,
{8},,,,,,1,2,3h[4:1],,,,,,1,2,3h[1:1],,,,,,8,7,6h[1:1],,,,,,,,2<7-3<6[2:1],,,,,,7,7,7h[2:1],,,,,,3-7[4:1],3,3h[2:1],,,,,,6pp2[3:2],6,6h[2:1],,,,,,,,
{8}2bxh[2:1]/7bxpp3[2:1],,,,,,,,8h[2:1],,,,1h[2:1],,,,
{8}6q1[2:1],,,,3h[2:1],,,,6h[2:1],,,,2h[4:1],,,,
{8}15,1,26,2,37,3,48,4,51,5,62,6,73,7,84,8,
{16}2,1,3,8,4,7,5,6,8,7,1,6,2,5,3,4>4[11:8],Cf,,,,,,,,,,,,,,,,
{8}1,8,1,8,2,7,2,7,3,6,3,6,4,5,4,5,
3,3,6,6,2,2,7,7,1,1,8,8,1,8,
{16}1,8,1,8,
{8}27,2,2,2,2,2,2,{16}2,3,{8}4,4,4,4,4,4,4,4,
{16}4,5,4,5,4,5,4,5,
{32}3,,6,,3,,6,,2,,7,,2,,7,,
{32}1b,2,3,4,8b,7,6,5,1bw5[8:1],,,,,,,,1b,B1,Cf,B4/B6,B5,,,,,,,,,,,,
{16}1x,8,1x,8,2x-6[16:1],,3,,2b/6b,,,,8,,8,,
{16}2x,1,2x,1,3x-7[16:1],,4,,3b/6b,,,,1,,1,,
{16}8x,1,8x,1,7x-3[16:1],,6,,7b/3b,,,,1,,1,,
{16}7x,8,7x,8,6x-2[16:1],,5,,6b/3b,,,,8,,8,,
{16}1x,8,2x,7,1x-5[16:1],,2,,1b/8b,,,,8x,7,6x/1x,,
{16}2x,1,3x,8,2x-6[16:1],,3,,2b/1b,,,,1x,8,7x/2x,,
{16}8x,1,7x,2,8x-4[16:1],,7,,8b/1b,,,,1x,2,3x/8x,,
{16}7x,8,6x,1,7x-3[16:1],,6,,7b/8b,,,,1b,,2b/8b,,
{16}1x,2,3x/8x,7,6x/2x,3,4x/8x,7,6b/2h[4:1],,,,,,,,
{16}8x,7,6x/1x,2,3x/7x,6,5x/1x,2,3b/7h[4:1],,,,,,,,
{16}1x,2,3x/8x,7,6x/2x,3,4x/8x,7,6b/2h[4:1],,,,,,,,
{16}8x,7,6x/1x,2,3x/7x,6,5x/1x,2,3b/7h[4:1],,,,,,,,
{16}2,5,2,5,1,6,78,,{32}1b,2,3,4,,,,,{16}34,,56,,
{16}7,4,7,4,8,3,21,,{32}8b,7,6,5,,,,,{16}65,,47,,
{16}3,6,3,6,2,7,18,,{32}1b/8b,27,36,45,,,,,{16}45,,34,,
{32}2b,3,4,,1b,8,7,,2b,3,4,5,6,7,8,1,2b/6b,,,,,,,,18,27,36,45,,,,,
{16}2,1,3,8,2,1,3,8,4x/7x,,,,43,,34,,
{16}7,8,6,1,7,8,6,1,5x/2x,,,,43,,43,,
{16}3,4,2,5,3,4,2,5,1x/6x,,,,18,,81,,
{16}6,5,7,4,6,5,7,4,8x/3x,,,,81,,18,,
{16}1x,2,3x/8x,7,6x/2x-6[16:1],3,4x/8x,7,6b/2b,,,,8,,1,,
{16}8x,7,6x/1x,2,3x/7x-3[16:1],6,5x/1x,2,3b/7b,,,,1,,8,,
{16}1x,2,3x/8x,7,6x/2x-6[16:1],3,4x/8x,7,6b/2b,,,,8,,1,,
{16}8x,7,6x/1x,2,3x/7x-3[16:1],6,5x/1x,2,3b/7b,,,,1b,,2b/7b,,
{4}1>8[3:2]/C,,,,
{4}5<8[6:1],B6/B7,4>1[6:1],B3/B2,8<5[6:1],B7/B6,1>4[6:1],B2/B3
,
{4}8p5[2:1],C,,3bxh[8:1],
{16}3,4,2,4,3,4,2,5,1bh[8:1],,,,8,1,7,2,
{16}7,8,6,8,7,8,6,1,5bh[8:1],,,,4,5,3,6,
{16}4,5,4,5,4,5,3,6,3,6,3,6,2,7,2,7,
{32}1b,2,3,4,8b,7,6,5,2b,3,4,5,7b,6,5,4,1b,2,3,4,5,6,7,8,1,2,3,4,5,6,7,8,1h[16:3]/5h[16:3],,,,,,,,8b,7,6,5,4/8b,37,26,1bp7[1:1]/5bp3[1:1],
