&title=D-birth
&artist=Sakuzyo
&first=0.515
&des=zzyzy
&lv_5=14+
&des_5=zzyzy
&inote_5=
(187){4},,,,{1}1-6-8-5[4:5]*-4-2-5[4:5],
{4},,,1v7-4[4:5]*v3-6[4:5],
,,,,,,{2}7h[2:3]/3-8-2-6[4:5],
{4},,,,,3h[4:5]/7-2-8-6[1:1],
{8},,,,,,,,,4,
3,2,
{1}1b/Cf/B8/B7/B6/B5,
{4},,,5s1[4:3],
{8},1s5b[8:3],{16},,,,,,,,,,,,,,3,
4,3,4,3,2/5,,,,,4,,,7,
{8}5,4/3,{16},,4,5,,,,,2,3,{8}4,
{16}7,6,5,4,{4}3b/1v2-5[1:1],{8},,,,7-4[4:1],
,,,,6,7,8,
{1}1qq6>5[4:5]*pp4<5[4:5],
{24},,,,,,,,,,,,,,,,,,8b/2b,7/3,4/6,5,,,,,,1b/7b,
2/6,3/5,{4}4,{1},{24}4x,
3x,2x,1xh[8:3],,,,,,8x,7x,6x,
{1}5xv2V47[4:3]*v8V63[4:3],
{24},,,,,,8b,7/1,6/2,5/3,{12}4,,,,,,,,,,{4}4,
{8}2,3,{16}4,5,3,6,
{4}2/7,{16}8-4[8:1],,,3,{8}8/3b,1,,C,
,8-5[8:1],7,8/2-5[8:1],1,2,{4}7,
{16}1-5[8:1],,,6,{8}1/6b,8,,C,,1-4[8:1],
2,1/7-4[8:1],8,7,{4}2,{16}4/6,,,2,
{8}2/5b,6-2[8:1],,6<1[8:1],,6/3V17[8:1],4,3V57[8:1],
5,3,{4}8,{16}8/3,,,7,{8}7/4b,3-7[8:1],
,3>8[8:1],,3/6V82[8:1],5,6V42[8:1],4,6,
{4}1,{16}1/7,,,3,{8}3/4,5,,1/3,
,2<3[8:9],5,2,4,2b,1b,8b,
{4}7b,6,{8},5-2[8:1],4-7[8:1],5,
4,1,8,7,{4}6,{8}5/3,{16}4,6,
{8}4,5-1[8:1]/7-3[8:1],,5/7,,,,2/8,
7/3,6/4,5/1,3pp6>2[8:9]/7pp2<6[8:9],,,,,,,,,,,,,{4}E6h[4:7],
{8},,,,1,2,
{2}3,{4}3,E2h[4:7],
{8},,,,5,6,{4}7,
,6,{2}8<3[2:3],
{8},,5,4,3,2,1,8,
,1,{4}Ch[2:3],{8},,,B7/E7/B6,
,A8,{4}A7,B6,A5,
3V17-2-4-8[16:21],{8},,,,5,5,
6,,,7,,,{4}6b<8p1-6b[4:5],
{8},,,,2,3,{4}4,
{8},5,,,{4}1V35[8:3],{8}C,5<1[8:3],
,C,{4}1>5[8:3],{8}C,5V71[8:3],,C,
{4}1-3[4:1],3qq5[4.492##1.6043],,,,,,,{1}6pp4[2.246##1.6043],
{4},,,3x/6x,
{1},,,,,{4}7h[8:17],
B2,{8}B4,B5,,C,
,,,E1,E2,E3,E4,Ch[4:1],
,,,,,,,,,,,,{4}3h[8:21],
B8,
{8}B6,B5,,C,,E2,E1,E8,
E7,E6,{4}Ch[4:1],{8},,B1,B7,
,C,{16},,,,,,,,,,,,B8,
B7,E7,E3,B3,B4,{1},{4},{16},,,B1,
B2,E3,
E7,B6,B5,E5,,,,,,,,,,,,,,,,,{4}1>4qq2[4:7]/8<5pp7[4:7],
{2}1bx/8bx,
{1},,{4},,{8},5,
4,3,
{4}2h[8:7],B7,{8}8,7,,6,
,,,E8,B7,B3,E4,Ch[4:1],
,,,,,,,,,4,
5,6,{4}7h[8:7],B2,
{8}1,2,,3,,1-5[8:1],8-4[8:1],1,
8,1,{4}2/6,{8},,1/7,6/2,
,3qq8[8:5],,,,7,6,5,
{4}4h[8:7],B1,{8}1,2,,5b,
,,,2/4,3,4/6,5,2-6[4:1]/4-8[4:1],
,2/4,,,,,,,,,{4}1-6[4:1]/2-5[4:1],
{2}1/2,
{8}1/6,7-4[4:1]/8-3[4:1],,7/8,,,,Ch[8:3],
{48},,,,,,,,,,,,B2/B6,B3,B7,B4,B8,E5,{8}E1,,,,,,,,,,,,,{4}3h[8:17],
5,{8}2,,,7,
,,,1,8,7,6,5,
,4b,,,,,,,,,,,{2}3-8-2-5[2:3]/6-1-7-4[2:3],
{8},,,,,,,,,,,,,,4,
5,
4,3/6,,,,,,,{4}6h[8:17],
4,{8}2,2,,1>3[8:1],
,,,4,4,3,1,2,
,5b,,,,,,,,,{4}7V13V17>3>7[4:13]*<3<7V53V57b[4:13],
{1},,,{4},,{8}5b/6,
4,3,5b/6,4,3,5b/6,4,
3,5b/6,4,3,5b/6,4,3,5b/6,
4,3,5b/6,4,3,5b,{4}5/3,
,,2-7[8:1]/7-3[8:1],{16}2/7>4[4:1],,,5,
{8}4-8b[8:1],5s1[4:1],{16},,,,,,,,,,8,7,
{8}6,{16}1>4b[8:1],2,{8}3,4>7[8:7],,,,,,4,
3,2,1,8,{24}7b,6,5,4,3,2,
{2}1w5[8:1],{16}8-4[8:1],7,{8}6-2[8:1],8,6,
{16},,5,2,7,3,5,1,6,4,8,2,{4}7-3[8:1],
7b/1b,{16}1-5[8:1],2,{8}3-7[8:1],1,3,{16},,4,3,
5,2,{24}6,5,4,3,2,1,8,7,6,{4}5-1[8:1]/2-5[8:1],{16}2/5>8[4:1],,,7,
{8}8-4b[8:1],5s1[4:1],{16},,,,,,,,,,2,6,
4,5,3,7,1,6,{24}4w8[8:1],3/5,2/6,{8}1/7,4b,,,3/5,
1/7,8/2,{16}5,6,7,8,1/5,4,{4}3w7[8:1],
3,5/1,{16}7-3[8:1],6,{8}5-1[8:1],7,5,
,8,7,6,{32}1x>6[32:5]/5x<2[32:5],2x>7[32:5]/6x<3[32:5],3x<8[32:5]/7x>4[32:5],4x<1[32:5]/8x>5[32:5],,,,,{4}5bx/1bx,
{8},,,,,Cf/B7/B3/B1/B5,,,,4,
5,6,{24}2-6[8:1],3,4,5-1[8:1],,,{8}2,5,
{16}3,4,{8}3,,Cf,{16},,,,,,7,2,
6,1,4,2,7,5,{8}6-2[8:1],,6,{16},3,{8}5/3,
{4}4/2<7[8:1],{8}2-4[8:1],3,2-8[8:1],1,2,3,
{24}7-3[8:1],6,5,4-8[8:1],,,{8}7,4,{16}6,5,{8}6v1[8:1],,6/2v5[8:1],
,2-7[8:1],1,2>5[8:1],3,2,{24}B1,C,{6}B5,
{4}Cf,{8}5h[8:3],4h[4:1],{24},,,E7/E3/B3/B6/Cf,B7/B2/B8/E8/B1/E2,A8/E1/D1/A1,,,,{8}5,
4/6-8[8:1],7,6/4-2[8:1],5,{4}4/6-1[8:1],6/1<5[8:1],
{8}2,4,,Cf,,,,E6,
E8,E1,{24}8,7,6,5s1[8:1],4,3,2,1,8,7/Cf,,,,,,{8}6,
,2,3,4,5,4,{4}3-8[8:1]*-6[8:1],
3,{8}4/7-3[8:1],4,4/7b,4,4/7-2[8:1],4,
4/7b,4,7/4-8[8:1],7,7/4b,7,{24}4b/7b,6,5,4,3,2,
1,8,7,6,5,4,3,2,1,8,7,6,5,4,3,2/Cf,,,,,,,,,,,,,,,{4}5w1[8:1],
5,{8}3/4,{16}3,4,
{8}5/2,7-2[8:1]/3-6[8:1],,3bx/7bx,,4,5/3-8[8:1],4,
3/6-1[8:1],5,{4}6/2,{8}6/5,{16}6,5,{8}4/7,2v5[8:1]/6-1[8:1],
,2b/6b,,3/7,8-4[8:1],6/4,8-6[8:1],3,
{16}8/1b,2,3,4,5,6,7,8,1/5b,4,3,2,1,8,7,6,
5/1b,2,3,4,2b,3,4,5,3b,4,5,6,8b,7,6,5,
4,3,2,1,8/4b,5,6,7,8,1,2,3,4/8b,7,6,5,
7b,6,5,4,6b,5,4,3,{4}1-4[8:1]*-6[8:1],1,
{8}5/7h[8:3],4,3,2,{24}8/1w5[8:1],7,6,5/4,3,2,{4}1,
1v4[8:1]*v6[8:1],1,2/5,{8}4/3h[8:3],5,
6,7,{24}1/8w4[8:1],2,3,4/5,6,7,{4}8,1>4[8:1]*<6[8:1],
1,7/3,{8}2,1/3-6[8:1],4,3/1-5[8:1],
8,1,3,2,,2qq3[4:1],{4}Cf,
{8},,,3,,5,{4}6/4,
8/3,4/5,{24}8b/4b,3/7,6/2,1qq3[8:9]/5qq7[8:9],{1},{4},,{16},{48},{24}1b/7b,
2/6,5/3,4w8[8:9],{1},{4},,{16},{48},{8}3h[2:1],
,,5h[2:1],,,{4}7h[2:1],
{8},1h[8:3],,,,,{4}1p3V15[4:7]/8q6V84[4:7],
,,,,,,,,{1}8h[1:1]/4h[1:1],
{24}E8/E4,B7/B3,B6/B2,E6/E2,
E
