&title=Re:何度目かのはじめまして 2
&artist=山口たこ
&first=-0.75
&des=拉普拉
&des_5=拉普拉
&lv_5=13
&inote_5=(167){4},,,,,,,,{1}8h/2q6[8:5],
4h/7-4[8:5],
2h/5<8[8:5],
7h[2:3]/3q5[1:1],
{16},,,,,,,,D4,D3,D2,D1,D8,D7,D6,D5,
{4}8b/D4/A3/E4,7p3[4:1],3,1q5[4:1],
8,7>3[4:1],6,5<4[4:3],
{1}4p5[2:1],
{8}2/7,8/1-5[8:1],,1/7-4-8[4:1],,7/3,{16},,,,1x/2,
,,7,{8}7,6/5,,1/3,,6,
4/5<1[4:1],3,{4}2,{16}2,3,4,5,8,7,6,5,
4/3,,,1h[16:3],,,{8}7h[4:1],,5h[8:3],,8,
{4}8-2[8:1],8/3-7[8:1],3/6-4[8:1],6/2qq5[2:1],
{2}6b/2b,7h[8:7],
{8}3h[8:5],{24},,,,,,,,,,,,7,8,1,2,3,4,5,6,7,
{1}8b/1b-5[4:3],
E8/B7,
{32}6/E3/B3,{4},,,{16},,,{32}E7,
2/B6,,,,,,,,,,,,,,,E4,7/B4,,,,,,,,,,,,,,,B6,
{1}B5/1bs5[8:5],
{4}6/4>5[2:5],{8}E7,E8,E1,E2,{4}E3,
{2}8,2,
{1}4>1[2:1],
{8}4h[4:1]/2h[8:1],,,1h[8:3]/3h[8:3],,,,,5h[4:1]/7h[8:1],
,,6h[8:3]/8h[8:3],,,,,{4}2h[8:1]/4h[16:3],
{8}1h[2:1],3,,8,{4}8,
7h[8:1]/5h[16:3],{8}8h[2:1],6,,1,{4}1,
{8}2/5,{16}3-1[8:1],5,{8}4,6,7-4[8:1],8,{4}1/7,
{8}7/3,{16}6-8[8:1],4,{8}5,3,2-5[8:1],1,{4}2/7-3[8:1],
7b/3b,{8}1b,5b/2-6[8:1],,6b/2b,{4}8h[2:1],
{16},,,,6,5,4,3,8,7,6,5,4,3,2,1,
{4}8v1[8:3]*<8[4:3],,,8v2[8:3]*<8[4:3],
,,{2}8<8[4:3]*v3[8:3],
{4},8-4[8:3]*<8[4:3],,,8<8[4:3]*v5[32:9],
,,8<4[8:3]*z4[8:3],
,,3/1-6[8:1],{8}1/2,3-8[8:1],
,3/4,{4}5-2[8:1],{8}5/6,7-4[8:1],,7/8,
{16}1h[8:1],,,2h[8:1]/8h[8:1],,,{8}3/7,6h[4:1],5,5,2h[4:1],
1,1,7h[4:1],6,6,4h[4:1],5,5,
3/6,5/2,1/4,3/8v6[32:15]*>8[8:5],,,,,,,,,3/8,
1-7[8:1],2-5[8:1],1-4[8:1],
2-6[8:1],1-7-4[4:1],2,1,,3,2,1,
6/8,8/6V82[4:1],,2q6[4:1],,6<6[2:1],,3h[2:1],
{16},,,,,,,,4,3,2,1,8,7,6,5,
4x/8x,7,6,5,4,3,2,1,4x/8x,3,2,1,{8}8x-5[8:1],7x-3[8:1],
8-2-5[4:1],7,{4}8,{8},6,7,8,
1/3,3/1-4[8:1],,1/8-5[8:1],,8/2>5[8:1],{24},,,2/D6,D7,D8,
{8}D1,8x-4[8:1],4>8[4:1]*<8[4:1],8,,,,,{4}7-2[8:1]/3-6[8:1],
7/3,1-6[8:1]/5-2[8:1],1/5,
{8}8-4[8:1],8,2-5[8:1],2,6<1[8:1],6,4-8[8:1],4,
5-1[8:1],5,2-6[8:1],2,{4}4-1[8:1]*-7[8:1],4,
2b/6b,{8}7/1-5[8:1],1,6<1[8:1],6,1,{32}D3,A3,D4,A4,
{8}D5,8x,{4}4x/8xh[4:1],{8},,1,1,
{4}2/4-2-8-6[8:5],{8}1,1,,3,{4}3,
5-3-1-7[8:5],{8}8,8,,6,{4}6,
{16}8,7,8,7,1,6,1,6,2,5,2,5,3,4,3,4,
{2}3h[2:1],{4}8h[4:1],{32}4,5,6,7,8,1,2,3,
{1}5b/4bw8[4:5],
{4},,,,2/6,
3<6[8:1],8-4[8:1],3-8[8:1],
6-4[8:1],2-4[8:1],7-3[8:1],1>8[4:3],
{1}8p1[2:1],
{8}6/3,4/5-1[8:1],,5/3>6[4:1],,3/8,{16},,,,5/4x,
,,3,{8}3,1/2,,7/5,,4-8[8:1],
2-5[8:1],4,{4}2,{16}6,7,8,1,4,3,2,1,
8/7,,,5h[16:3],,,{8}3h[4:1],,1h[8:3],,3,
{4}3-5[8:1],3/6-2[8:1],6/1-7[8:1],1/6qq1[2:1],
{2}6b/3b,2h[1:1],
{8}6h[8:5],{24},,,,,,,,,,,,2,1,8,7,6,5,4,3,2,
{1}1b/8bw4[1:1],
{8},,,,,8b-4[8:1]/1b-5[8:1],2b/7b,1b/8b,
E
