&title=Timeless Shooting Star
&artist=ストレイライト
&first=0
&des=写神谱...到底是什么感觉?
&lv_5=13
&inote_5=(128)
{1},,
{4}
1>8[4:10],,,,
,,,,
4h[4:5],,,,
8,8,
{8}1w5[8:1],82,1b,,
{8}73,2,56,{16}7,7,,5,5,,46,,1,,
{8}35,7,34,{16}2,2,,4,4,,35,,46,,
{8}73,2,56,{16}7,7,,5,5,,46,,1,,
{16}3/5,,2,4,3,5,1b,,{16}6/4,,7,5,6,4,8b,,{8}26,7,43,{16}2,2,,4,4,,53,,8,,
{8}64,2,65,{16}7,7,,5,5,,64,,53,,
{8}26,7,43,{16}2,2,,4,4,,2-7[64:7]/6-3[64:7],,73,,
{8}2b/6b,,{16}1,1,7,7,8-5[64:8]*-3[64:8],,,,8b,,,,
{4}6<1[4:2]/4,5,4,3,8z4[4:2]/2,1,1,
{4}1,1pp4[4:2]/4,5,6,7,
{4}3/7-4[8:1],2-6[8:1]/7,8w4[8:1]/2,8b,
{8}3-5[64:7]/6,2,6,8,3-5[64:7]/6,2,6,8,
6-1[8:1]/2,5,2,4,6-1[8:1]/2,5,2,4,
2-6[8:1]/5,1,5,7,2-6[8:1]/5,1,5,7,
{8}57,4,2h[8:1],4,7/5-8[8:1],3,,,
{16}6/5h[16:3],,,4h[16:3],,,3,,2>5[8:1]/4,,,,2b/6b,,,,
{16}4/8h[16:3],,,1h[16:3],,,3,,4-7[8:1]/1-5[8:1],,,,1b/4b,,,,
{16}7/5h[16:3],,,4h[16:3],,,2,,1-5[8:1]/4,,,,1b/7b,,,,
{16}75,75,,24,24,,17,1w5[16:3]/7,,28,28,,,,,,
{4}56,46,36,2pp1[4:3]/6,8,7,6,5,
{4}41,52,63,4/7<4[4:1],4>1[4:1],1<6[8:2],6,4,
{16}3b/5b,,7h[8:1],,5,6,4,,
{16}6/4,,2h[8:1],,4,3,5,,
{16}3b/5b,,8h[8:1],,5,7,3,,
{16}3/5,,1h[8:1],,4,3,6,,
{16}2,2,8,8,1,1,7,7,3,3,6,6,1h[8:1],,5,,
{16}2b/4b,,,3b/5b,,,4b/7b,,{8}8-4[8:1]/5-2[8:1],1,8b/5b,,
1>4[8:1]/4,{16}2,6,1,,8,,{8}1-6[8:1]/5-2[8:1],8/4,1b-4[8:1]/5b,,
16,6,{16}4-1[8:1]*-7[8:1],4,5,5,4,,,,62,,1,,
{8}1-5[8:1]/6,{16}5,5,1,,8-4[8:1],,3>5[4:1],3,8,,3b,,,,
8,,2,4,3-6[8:1],5,4,,3-8[8:1]/7v4[8:1],,,,{8}7b/3b,,
5<8[8:1]/1,{16}6,3,5,,4,,{8}5-2[8:1]/1-6[8:1],4/8,5b-8[8:1]/1b,,
52,2,{16}8v5[8:1]*-4[8:1],8,1,1,8,,,,36,,7,,
{8}8-4[8:1]/3,{16}2,2,8,,1-5[8:1],,6<4[4:1],6,1,,6,,,,
1,,7,5,6,3,4,2,5>1[8:1],5,4,7,{4}5b,
{8}2>5[8:1]/5<8[8:1],{16}1,,5p3[16:4]/2,,,,1,,,,7b,,,,
{8}7<4[8:1]/4>1[8:1],{16}8,,4q6[16:4]/7,,,,8,,,,2b,,,,
{8}8qq7[32:5],8,{8}5,4,3qq2[32:7],3,5,6,
{8}7-4[8:1],6,{8}1-5[8:1],2,8w4[8:1],7,8b,,
{8}1>4[8:1]/4<7[8:1],{16}8,,1/4pp3[4:1],,,,1,,,,7b,,,,
{8}8<5[8:1]/5>2[8:1],{16}1,,8/5qq6[4:1],,,,8,,,,2b,,,,
{8}6,6/4,5/3,4/2,1/7,5/6,2/4,18,
{32}1/7,6,5,4,,,,,
8/2,3,4,5,,,,,
1w5[8:1]/7,6,5,4,,,,,{4}1b,
{8}3/7,28,{16}7,5,6,4,,6/4,6/4,,{8}5/3,1,
{8}6/2,71,{16}2,4,3,5,,3/5,3/5,,{8}4/6,5,
{8}46,28,{16}7,5,6,4,,6/4,6/4,,{8}5/3,1,
3/5,{16}7-4[64:7],5,8,4,7b,,3,,2-5[64:7],4,1,5,2b,,
{8}6,71,{16}2,4,3,5,,2/4,2/4,,{8}4/6,8,
{8}3/7,28,{16}7,5,6,4,,7/5,7/5,,{8}5/3,4,
{8}35,71,{16}2,4,3,5,,2/4,2/4,,{8}4/6,8,
{4}3b<8[8:5]/7b,,1>4[8:1],,
{8}5h[8:7],,,,,,2,8,
E
