&title=Calami7ous
&artist=Halv
&first=-0.548
&des=Shengwxnw vs. In_Cyan
&lv_5=14
&inote_5=(199){4},,,,{1}Cfh[1:1],
8-2-6-4<5-3-7-1>8[4:13],
,,,{8}E4,
,,E8,,,{4}E6,
{8},E2,,E7,,,{4}E3,
{8}E6,B5,E2,B2,,3pp1[8:5],,B7/B8/E8,
,,,,,,{4}7,
{8}5,,,2,,,{4}4,
{8}2,8h[4:1],,1h[8:3],,,{4}7,
3h[4:1],{8}6,5,,3,,6,
,2pp4[4:1]/7V14[4:1],,,,,,,2x/8h[1:1],
,,3,,,{4}4,
{8},6x/2x,,7x/4h[8:3],,,{4}6,
{8}8,3h[8:11],{24}2,1,8,7,,,,,,{8}6,,4h[8:5],
{16},,,,,,,,,,,2x/5x,,,{8}4x/6x,
1x/7h[4:3],,,4x>1[8:1],,,,,2xh[4:3],
,,8x<5[8:1],,,,,{1}3>7v5<6-8-2-4[8:11],
8>4b[8:3],
{8}2xh[2:1]/6xh[2:1],{16},,,,,,,,3,4,{8}2,5/1,
{16}2,3,{8}4,8,{16}6,5,,3,{8}4,6,5/7,
{1}8xh[4:3]/4xh[4:3],
{16}2,3,4,8,7,6,,1,,6,{8}4,{4}3h[2:1]/5-1[8:1],
{2}5b,{16}2,8,,4,{8}6,{16}3,5,
{2}1b,{16}7,1,,5,{8}3,{16}6,4,
8b,,,3x/5x,,,{8}6x/1x,{16},7x/4x,,,{4}5x/2xqq7>2[8:5],
6h[2:1],,,6b-3[8:1],
6bx/2-5[8:1],2x,{8}7h[4:1],6,4h[4:1],5,
8h[4:1],6,1h[4:1],3,{4}2>5[8:1],8/2-6[8:1],
7b-1b[8:1]*-5b[8:1],7,{8}7h[8:1],5,7h[8:1],8,
6h[8:1],5,6h[8:1],8,{4}5/2-7[8:1],2,
8/1,{8}2>5[8:1],3,8-4[8:1],1,2-6[8:1],3,
8<5[8:1],1,{4}3h[8:1],2/6-3[8:1],6b,
1b,{8}4/6h[8:1],3,5/2h[8:1],6,4/7h[8:1],3,
{4}2bh[8:1],{16}8-4[8:1],4,6,2,{2}8b,
{4}2b/7b,{8}3h[8:1],4h[8:1],1h[8:1],8h[8:1],5h[8:1],6h[8:1],
{16}1,2,{8}3,5h[8:1],4h[8:1],1h[8:1],2h[8:1],{4}8b-6[8:1]*-5[8:1],
8b-2[8:1]*-3[8:1],8bw4b[8:1],{8}8,{16},,,,6,5,
{8}7b,{16}3,4,{8}2b,{16}6,5,{8}7b,{16}2,4,{4}1b,
{8}3b/5b,6,4/7,3,2/5,6,2/7,3,
8/5b,{16}2,1,{8}3b,{16}7,8,{8}6b,{16}1x/2x,3x/8x,{4}4bx/7bx,
{24}2x/7x,,,,,3,,4,,,,,7x/2x,,,,,6,,5,,,,,4x,
3,2,8x,7,6,4x,3,2,8x,7,6,{16}1x,5x,1,5,{4}1x-3-5-7-1[4:7]*-4b[8:1],
{32}1b,B2f,{1},{4},,,{16},,,{1}A2/B2/E3/6pp1<4[4:7],
{16},,,,,,,,4,,,3,,,{8}2,
1h[8:3],,,7h[8:3],,,{4}5h[8:3],
{8},4h[8:3],,,{4}3,2,
{16}5x/6x,,,7x/8x,,,{8}1x/2x,{16},3x/4x,,,{4}6xh[4:1]/5x-3[8:1],
{8}5,7,,,{4}8,1,
7b/2b,{16}3,4,3,4,{8}2bh[4:1],6,8h[4:1],1,
,7/5,7/5,4,{16}6b-8[8:1],5,7,5,{8}6,4,
{16}1,8,2,7,1,8,2,7,{4}1b-5[8:1],{8}1,7-3[8:1],
,7/3,{16}8,1,2,3,{2}4b/6b,
{4}5bxh[16:3]/6bxh[16:3],4bxh[16:3]/3bxh[16:3],{8}6bx/5bx,7bx/8bx,{4}8bx/7bx,
{8}2bx,2bx,{24}8bx,1bx,8bx,1bx,8bx,1bx,{8}8bx,7bx/2bx,{4}6bx/3bx,
{8}4bx/5bx,3bx/6bx,{4}7bx/2bx,{8}8bx/1bx,{16}2bx,4bx,{8}3bx,2bx,
4bx,{24}1bx,2bx,3bx,{8}4bx,{16}2bx,3bx,{4}4bxh[4:1],C,
7/2,{16}6,5,6,5,{8}7bh[4:1],3,1h[4:1],8,
,2/4,4/2,5,{16}7b<4[8:1],8,6,1,{4}7,
8b,{16}4,6,4,6,3b,5,3,5,2,4,2,4,
{8}1h[4:1],6,{4}8,{2}3b/7b>2[8:1],
{4}3,{16}5,4,{8}5,{16}3,4,{8}3,{16}7,5,{8}7,
{16}2,4,{8}2,{16}8,5,{8}7,{16}1,4,{8}2,{4}5,
1b-4[8:1]*-6[8:1],1b,{12}7x,5x,6x,2x,4x,3x,
,,,,,,,,,,,,{1}4h[8:15]/5-3-6-2-7-1b[2:3],
,7h[2:3]/4-6v3-5[1:1],
{8},,,,8,,,2q3[8:5],
{1}1h[4:3],
{8}3,,,4,,,{4}5,
{1}6q3q8[1:1],
8q6b[2:1],
{8}6xh[2:1]/1x-5-3[4:1],,,,,5x-1[4:1],,1x<7-4[8:3],
,,,,{2}C,
{8}3xh[2:1]/8xv5[4:1],,,,,2x-5[4:1],,5x-3-8[8:3],
,,,,{2}7,
{8}1x/5x-8[4:1],,,,,5x-2[4:1],,2xp4[4:1],
,,{4}6,{16}8,7,6,5,4,3,2,1,
8/A4/E4/E5,A3,A2,A1,A8,A7,A6,A5,A4/B4,A3,A2,A1,A8,A7,A6,A5,
8/A4,A3,A2,A1,A8,A7,A6,A5,{2}8h[4:1]/A4,
{1}8bh[1:1]/1pp2V86[2:1],
{16}3,7,4,6,{8}5,{16}7,8,,4,{8}3,1,2,
{1}5bh[1:1]/7pp1<5[2:1],
{16}8,4,7,5,6,3,,7,,8,{8}1h[4:1],,,{2}2bx/7bx,
{16}3,3,4,2,,6,{8}5,
{2}7bx/2bx,{16}6,6,5,7,,3,{8}4,
{16}7bx/2bx,,,3x/5x,,,{8}6x/1x,{16},7x/4x,,,{4}5x/2xqq7>2[0.3015##0.7463],
(201)6h[2:1],,,1xv4[8:1]/5v8[8:1],
1b>4[8:1],1/6h[4:1],{16}5,7,5,7,{4}8-4[8:1]/3v1[8:1],
3/8b<5[8:1],8/3h[4:1],{16}4,2,4,2,{4}1/6,
{16}5b/7-3[8:1],,,3,{8}7,2,{16}5/1-5[8:1],,,6,{8}1,8,
{16}7-4[8:1],,,8,{8}7,3,{16}2-5[8:1],,,1,{8}2,6,
{16}8-3[8:1],,,4,{8}8,2,{32}8bx,7,6,5h[32:5],,,,,{8}4,3,
{16}1-6[8:1],,,6,{8}1,7,{32}1bx,2,3,4h[32:5],,,,,{8}5,{16}8,1,
7bx-2b[8:1],,,3bx-6b[8:1],,,{8}5bx-8b[8:1],{16},1bx-4b[8:1],,,{4}7x,
{8}6,{16}2,4,{8}3,{16}6,5,{32}7,,,,,4x,3x,2x,{4}1xs5[8:1]`8z4[8:1],
1b/8b>3b[8:1],{8}8,4,4h[4:1],7,{16}5-1[8:1],3,6,4,
5<8[8:1],,,4,{8}5,3,2h[8:1],{16}4,3h[8:1],,5,{8}4h[8:1],
8h[8:1],{16}5,7h[8:1],,4,{8}6h[8:1],{16}3,5h[8:1],,2,4,5,6,7,
8bxh[8:1]/1bxh[8:1],,,3bxh[8:1]/4bxh[8:1],,,{8}6bx/5bx,{16}7bxh[8:1]/8bxh[8:1],,,2bxh[8:1]/1bxh[8:1],,,{8}3bx/4bx,
5/2,{32}8,7,{16}6,{32},,2,3,{8}4,{4}8h[4:1],1,
{8}4/7,{32}1,2,{16}3,{32},,7,6,{8}5,{4}2h[4:1],8,
{16}1,2,3,4,1/5,8,7,6,1/5,2,3,4,1/5,8,7,6,
{8}5/1,2,3,4,{2}5<8[8:1],
{8}2b/7b,{16}3,4,2-7[8:1],4,{8}3,{4}2/6-3[8:1],6,
{8}7b/2b,{16}6,5,7-2[8:1],5,{8}6,{4}7/3-6[8:1],3,
{2}7h[4:7],{4}C,{8}E2,E4,
E3,E5,E1,E6,E8,E7,{4}C,
8bxh[16:3]/7bxh[16:3],1bxh[16:3]/2bxh[16:3],{8}7bx/8bx,6bx/5bx,5bx/6bx,3bx/4bx,
{4}4bx/3bx,{24}5bx,4bx,5bx,4bx,5bx,4bx,{8}5bx,6bx/3bx,{4}2bx/7bx,
7h[4:1],8h[4:1],1h[4:1],2h[4:1],
{32}7x,E7,B6,B5,,,1x,E2,B2,B3,,8x,E8,B7,{16}B6,{32},,2x,D3,A3,D4,,,{4}6x,
{16}5/1-3<5-2[4:1],,,8,{8}1,6,{4}7h[8:3],{8}1,2,
{16}3/8v5<6-1[4:1],,,1,{8}8,4x,2h[8:1],{16}4,3h[8:1],,5,{8}4h[8:1],
{16}6-8>1-5[4:1],,,5,{8}6,4,{16}2>4-8[4:1],,,1,{8}2,5,
{16}7,6,5,4,1,2,3,4,{4}5>2[8:1]/6<1[8:1],5/6,
{16}3x/E1f,,,7x/4x,,,{8}1x/6x,{16},5x/3xh[16:3],,,,,,,7x/E5f,
,,3x/1x,,,{8}6x/2x,{16},8x/4xh[16:3],,,,,,,8,
7,1,6,2,5,3,4,2,1,3,8,4,7,5,6,
1,8,1,8,2,7,2,7,3,4,2,6,8,7,1,5,
{1}3w7[4:11],
,,,3h[4:3]/8>1v3<5b[2:1],
2h[4:3]/3-5-1<7b[2:1],
1h[4:3]/8-4-8<7b[2:1],
{16}8bx,2bx,7bh,3bx,6bx,4bh,1bx,7bx,2bh,6bh,3bx,5bx,4b-8[8:1],4b,4bx,4b,
{32}4b/B5/B3,Cf,{16}B7/B1,
E
