&title=喧嘩上等
&artist=東京事変
&first=-0.279
&des=DOLiVE
&lv_5=13
&inote_5=(121.9)
{1},,,,,,,,,,,,,
{24}6,,,5,,,6,,6,4,,,4,,,5,,,4,,4,5,,,5,,,4,,,5,,5,3,,,3,,,4,,,3,,3,4,,,
{16}2h[8:1]/5h[8:1],,,64,,,5,,7h[8:1]/4h[8:1],,,35,,,4,,
2h[8:1]/6h[8:1],,,3h[8:1]/7h[8:1],,,1b/5b,,,,,,,,8h[64:1],,
{24}47,,,6,,,2h[12:1],,5,3,,,46,,,7,,7,5,,5,6,,,
52,,,3,,,7h[12:1],,4,6,,,53,,,2,,2,4,,4,3,,,
47,,,6,,,1h[12:1],,4,2,,,35,,,6,,6,4,,4,7,,,
52,,,3,,,8h[12:1],,5,7,,,64,,,3,,3,5,,5,2,,,
(121)
{16}1b/4h[16:3],,,3,,,8/5h[16:3],,,6,,,2/4h[16:3],,,3,,,7/5h[16:3],,,6,,,
(138)4-7[10:1]/3-8[10:1],,,,(116)4b/3b,,,,
(122.3){24}6,,2,4h[8:1],,,3,,7,5h[8:1],,,6,,3,4h[8:1],,,2,,6,5h[8:1],,,
(121.9){24}7,,48,,,3,15,,,84,,2b/6b,
(116){8},,(125){128}1h[96:1],,,,,,,,,,,,,,,1h[96:1],,,,,,,,,,,,,,,,,
(121.95)
{8}6^1[10:1],7,2^5[10:1],3,7,{24}8,,8,5,,5,6-1[10:1],,,47,,,6,,,3,,3,1,,,28,,,{16}7,65,,56,7,,
{8}4^1[10:1],3,8^5[10:1],7,1,{24}2,,2,6,,6,4-7[10:1],,,35,,,4,,,2,,2,8,,,17,,,{16}2,34,,43,(138)2,,
(120){8}5^8[10:1],6,1^4[10:1],2,8,{24}7,,7,3,,3,5-2[10:1],,,64,,,5,,,7,,7,1,,,82,,,{16}7,65,,56,(140)4,,
(121.9){8}3^8[10
:1],2,7^4[10:1],6,2,{24}1,,1,4,,4,3,,,{8}8^3[10:1],,5^8[10:1],,4-8[10:1],,7,5,
(122.1)1-5[10:1],26,{24}1,,8,{8}8,7-4[10:1],56,{24}7,,3,{8}3,
2-5[10:1],16,{24}2,,7,{8}7,8-4[10:1],73,{24}8,,2,{8}2,
1-5[8:1],5^2[8:1],1,7,{16}8h[8:1],,2,6h[8:1],,1,4b,,
{24}5,,2,4,,6,4,,2,4,,6,4^7[10:1],,2,{8}4^1[10:1],(121),,
(122.2)8-4[10:1],73,{24}8,,1,{8}1,2-5[10:1],43,{24}2,,6,{8}6,
7-4[10:1],83,{24}7,,2,{8}2,1-5[10:1],26,{24}1,,7,{8}7,
{16}8b/5h[16:3],,,6,4,,1/4h[16:3],,,3,5,,7/5h[16:3],,,6,4,,2/4h[16:3],,,3,5,,
{8}6-2[10:1]/4-8[10:1],,4^7[2:1],,1b,,,,2h[4:1],,{64}8,1,2,3,4,5,6,7,{24}1b,,,
8h[4:1],,,,,,2,,2,7,,,1h[4:1],,,3,4,5,6,,,2b/8b,,,
37,,,6,,3,5,,7,5,,3,5,,7,5,,3,5,,7,5,,3,5,,4,,,4,6,,5,,,5,7,,,7,5,6,{16}4b,4,,53,
(119.5){24}35,,,2-5[10:1],,3,{16}4,,2,1,,1,4^1[10:1],,37,,4,6,
(126){24}6,,,(121.9)7-4[10:1],,6,{16}5,,7,8,,8,5^8[10:1],5,(122)3,,(124)1b,,
{24}2,,,3^6[8:1],,2,{16}1,,3,8,,8,5,5,6,2,(127)4,,
(121.9){24}3b,,8/4,,,7b,5/1,,,4b/8b,,6b/2b,
(116){8},,(125){128}1h[96:1],,,,,,,,,,,,,,,1h[96:1],,,,,,,,,,,,,,,,,,
(121.9){8}7^4[10:1],6,{24}2-6[10:1],,1,{8}1,5-8[10:1],4,{24}1,,2,{8}2,
7h[8:1]/3,8,{24}6,,6,1,,1,4-8[10:1],,5,{8}2-5[11:1],,,
{8}7-2[10:1],8,{24}3^8[10:1],,4,{8}4,6-3[10:1],7,{24}1,,2,{8}2,
(122.1){16}4,3,5,8,7,1,6,2,4,4,8,6,3,1,5,7,
(121.9){8}2^5[10:1],3,{24}7-3[10:1],,8,{8}8,4-1[10:1],5,{24}8,,7,{8}7,
{32}1,2,3,,7,6,5,,2,3,4,,6,7,8,,4,3,2,,7,6,5,,{16}1,1,(123)26,,
(121.98){24}7,,5,6h[8:1],,,4,,7,5h[8:1],,,6,,3,4h[8:1],,,2,,5,3h[8:1],,,
(123){8}8-4[10:1],,1^6[10:1],,5^2[10:1],,(121.98)1,8,
{24}7,,5,6,,3h[8:1],,,4,4,,,{16}16,1h[8:1]/6,,{24}5,6,{48}7,,,,,,{16}2b/8b,{48},,
(119){4}3-6[11:1],7-3[11:1],2-7[11:1],(121.8){8}6,6,
(127)1b/5b,,(124)2h[8:1]/4b,8,7h[8:1]/5b,1,2h[8:1]/4b,8,
(121.9)1-5[10:1]/7,5-1[10:1]/6,1b/2,3,4^7[10:1],1/7^4[10:1],4b/2,1,8-4[10:1],2/4-8[10:1],8b/7,6,5^8[10:1],2/8^5[10:1],4/5,3,
2^5[10:1],6-1[10:1],2-7[10:1],6,2,{24}5^8[10:1],,5,1,,,3,,,2,,1,3,,7h[8:1],,,5,5,,,{16}6,6,,84,84,,25,,
{8}8-4[10:1]/2,4-8[10:1]/3,8b/7,6,5^2[10:1],8/2^5[10:1],5b/7,8,1-5[10:1],7/5-1[10:1],1b/2,3,4^1[10:1],7/1^4[10:1],5/4,6,
(124){16}8h[16:3],,,5,7,,1h[16:3],,,4,2,,7h[16:3],,,5,6,,2h[16:3],,,4,3,,(115)5b,,,8,1,1,1,1,
(121.9){4}1-5[4:3],7,,3-7[4:3],,5,,(130)1b,
(121.5){24}28,,,7,5,6,3,,,25,,,{16}7-4[10:1]/8-3[10:1],6,1,,8b/7b,,,,6,3,4,2,{24}4,3,6,5h[8:1],,,7,6^1[8:3],5^2[24:8],4b,
