&title=【逆】Last Samurai
&artist=Street
&first=0
&lv_7=13+?
&des=FANdoraxxx
&des_7=FANdoraxxx
&inote_7=
(172){4},{1},{4},(57.333){48}4/5,
,,,,2,{192},,,{64}4,,3,{32}6,{64}5,7,{4}4xh[4:1],
5h[4:1],6h[4:1],7$/4?q7[4:1],4,
3h[4:1],4h[4:1],{8}5,{24}3/6,3/6,,{4}2$/7?p2[8:1],
6$/3?p6[8:1],4$/1?p4[8:1],8$/5?p8[8:1],3$/6?q3[8:1],
7$/2?q7[8:1],1$/8?<1[4:1],{2}Cfh[4:1],
{12},,,4x/5x,{24}3,4,6,5,4,3,5,6,4/7,3/8,{12}2$b/6?-2[12:1],1,8,
7$/3?-7[12:1],8,1,2$/6?s2[24:5],1,8,7x,7x,,1$/8h[6:1]/4?-1[12:1],2$/6?-2[12:1],3,
,,,5$/7h[6:1]/1?-5[12:1],4$/8?-4[12:1],3,,,,7$/3?q7[12:1],8,1,
2$/6?p2[12:1],1,8,7$/3?pp7[24:5],8,1,2x,2x,,8$/1h[6:1]/5?-8[12:1],7$/3?-7[12:1],6,
,,,2$/4h[4:1]/4?<2[6:1],3,3,,,,1$/2h[12:1]/6?-1[12:1],3h[12:1],4h[12:1],
1$/4?-1[12:1],5h[12:1],3h[12:1],1$/5?-1[12:1],8h[12:1],2h[12:1],{6}5,{12}4/6,8$/7h[12:1]/3?-8[12:1],6h[12:1],5h[12:1],
8$/5?-8[12:1],4h[12:1],6h[12:1],8$/4?-8[12:1],1h[12:1],7h[12:1],{6}4,{12}3/5,1$/2h[12:1]/6?-1[12:1],4h[12:1],6h[12:1],
1$/4?-1[12:1],5h[12:1],3h[12:1],1$/5?-1[12:1],7h[12:1],3h[12:1],{6}5,{12}4/6,8$/7h[12:1]/3?>8[12:1],5h[12:1],3h[12:1],
8$/5?<8[12:1],4h[12:1],6h[12:1],8$/4?-8[12:1],3h[12:1],5h[12:1],4,6,3/5,1b/7b,{48},,,,,,,,,3$/8?<3[4:1],
,,,,,,,,,,,8<8[2:1],,,,,,,,,,,,4$/8?<4[4:1],,,,,,,,,,,,8$/3?>8[4:1],,,,,,,,,,,,3>3[8:5],
,,,,,,,,,,,B4,,,,,,,,,,,,,{24}C,,,,,,8$/2?>8[4:1],,,,,,2$/5?<2[24:5],
,,,,{4}5$/1?>5[4:1],1$/6?<1[4:1],6<6[3:2],
{24},,,,,,,Ch[192:49],,,,,,,,,,,4,4h[12:1],{48},,5,5,{12}2,
1/2,3/4,5/6,8/7$/5?-1-7[6:1],6,5$/7?-5[12:1],4/5,3,2,2$/8?-4-2[6:1],1,8$/2?-8[12:1],
{6}8/7,{12}5,5$/8?<5[12:1],3,3,3/5$/2?>5[12:1],4,4,6/5$/1?-5[12:1],6,6,
{6}4/1,{12}4/8,3$/1?-5-3[6:1],2,1$/3?-1[12:1],1/8,8,7,6$/4?-8-6[6:1],5,4$/6?-4[12:1],
3/4,3,2,1h[4:1],,,2$/6?-2[12:1],6$/3?-6[12:1],3$/7?-3[12:1],7$/4?>7[8:1],4,5,
{4}6b,{12}5/7$/5?-1-7[6:1],{24}6,6,{12}5$/3?-7-5[6:1],4/7,3,2,2$/8?-4-2[6:1],{24}1,1,{12}8$/6?-2-8[6:1],
8/5,6,7,7$/1?-5-7[6:1],{24}8,8,{12}1$/3?-7-1[6:1],5/1,4,3,2$/5?>2[24:1],1,8,
{6}5/7h[6:1],{12}5,5/7$/5?-1-7[6:1],{24}6,6,{12}5,5/4$/2?-6-4[6:1],{24}3,3,{12}2,2/1$/7?-3-1[6:1],{24}8,8,{12}7,
7/6$/4?-8-6[6:1],{24}5,5,{12}4,3/6$/2?V86[48:7],{24}1,1,{12}1,2/8$/4?w8[12:1],{24}3,4,{12}5,4x,,,B4,
C,B8,6$/2$/4?v6[24:1]*v2[24:1],{24}6$/2$/8?v6[24:1]*v2[24:1],3/5,,3/5,,,,,,,{12}3$/7$/5?v3[24:1]*v7[24:1],{24}3$/7$/1?v3[24:1]*v7[24:1],6/4,,6/4,
,,,,,,{12}6$/2$/4?v6[24:1]*v2[24:1],{24}2$/6$/7?v6[24:1]/1?v2[24:1],3/5,,3/5,,,,,,,{12}3$/7$/5?v3[24:1]*v7[24:1],{24}7$/3$/2?v3[24:1]/8?v7[24:1],6/4,,6/4,
,,,,,,{12}6$/2$/8?v6[24:1]/4?v2[24:1],{24}6$/2$/5?v6[24:1]/1?v2[24:1],3/7,,3/7,,,,,,,{12}3$/7$/1?v3[24:1]/5?v7[24:1],{24}3$/7$/4?v3[24:1]/8?v7[24:1],6/2,,6/2,
,,,,,,{12}5$/1$/7?v1[24:1]/3?v5[24:1],{24}5$/1$/6?v5[24:1]/2?v1[24:1],4/8,,4/8,,,,,,,8$/4$/6?v8[24:1]/2?v4[24:1],4/8,8$/4$/7?v8[24:1]/3?v4[24:1],4/8,{12}4$/8$/1?v4[24:1]/5?v8[24:1],
C,C,{6}C,
E
