&title=Interplanetary Spark
&artist=Stellar Ignation
&first=0.05
&des=Stellar Ignation
&des_5=
&clock_count=4
&lv_5=14
&inote_5=(137){4},,,,,,{2},{8}3h[8:1],{16}4,3,
{8}5h[8:1],{16}4,5,{8}3h[8:1],{16}4,3,{8}6h[8:1],{16}5,6,{8}4h[8:1],{16}5,4,
{8}6h[8:1],{16}3,4,{8}2h[8:1],{16}4,3,{8}5h[8:1],{16}4,6,{8}2h[8:1],{16}8,3,
{8}6h[8:1],{16}5,7,{8}3h[8:1],{16}4,2,{8}8h[8:1],{16}1,6,{8}4h[8:1],{16}5<3[32:7],3,
{4}8,{16}4,4,{8},{16}5/1,5/1,{8},3b/4b,2,
{16}6,4h[16:1],{8},{16}2,4h[8:1],,8,,1,,2/8,,7,{8}5,
{16}3,5h[16:1],{8},{16}7,5h[8:1],,1>4[32:3],,8,,7/1,{8},7,
{16}5,6h[8:1],,4,{8}7h[8:1],{16}3,8h[8:1],,2,1,1,{8},2,
{16}4,3,{8},{16}5/7,6,{8},{16}2/4,3,{8},6/5,7,
{16}3,5h[16:1],{8},{16}7,5h[8:1],,1,,8,,7/1,,2,{8}4,
{16}6,4h[16:1],{8},{16}2,4h[8:1],,8<5[32:3],,1,,2/8,{8},2,
{16}4,3h[8:1],,5,{8}2h[8:1],{16}6,1h[8:1],,7,8,8,6,5,7,7,
4,5,3,3,5,4,6,6,1-5[32:3],5,3,7,{8}1b,8,
{16}6,4,{8}5,{16}3,3h[8:1],,1,,8/2,,1/7,,6,{8}4,
{16}2,4,{8}3,{16}6,6h[8:1],,8<5[32:3],,1/7,,8/2,{8},{16}3,3,
4,2h[8:1],,5,{8}1h[8:1],{16}7,3h[8:1],,4,2,2,{8},{16}6,6,
4,5,{8},{16}3/5,2,{8},{16}4/6,7,{8},7/1,6,
{16}3,5,{8}4,{16}6,6h[8:1],,8,,1/7,,8/2,,3,{8}5,
{16}7,5,{8}6,{16}3,3h[8:1],,1>4[32:3],,8/2,,1/7,{8},{16}6,6,
5,7h[8:1],,4,{8}8h[8:1],{16}2,6h[8:1],,5,7,7,3,5,4,4,
6,6,5,7,2,4,3,3,5,4,6,3,8b,7,6,2,
3,4,6,6h[8:1],,8,,1,7,2,{8}8,{16}2,3,4,7,
6,5,3,3h[8:1],,1,,8,2,7,{8}1,6b/5b,7,
{16}4,5,3,4,2,2h[8:1],,8>3[32:3],,1/7,,8/6,{8},{16}7,5,
6,4,5,5,3,4,2,5,3,7,1,1,8,7,6,1,
8,7,5,5h[8:1],,8,,1,7,3,{8}1,{16}2,3,4,8,
1,2,4,4h[8:1],,1,,8,2,6,{8}8,{4}4bqq8[32:11],
4b/7b-5[32:3],7b,{16}1,6,2,5,{8}3/4,5/1,
8/7,6/2,4/5,8/1,{32}8-4[32:3]/1-5[32:3],2/7,3/6,4/5,{8},{4}8b/1b,
{16}3,4,2,7,5,5h[8:1],,1,,8/3,,1/6,,3,{8}4,
{16}5,4,7,3,5,5h[8:1],,8-4[32:3],,1/6,,8/3,{8},{16}3,3,
5,4h[8:1],,7,{8}1h[8:1],{16}5,3h[8:1],,8,4,4,{8},{16}6,6,
8,7,{8},{16}2/5,3/4,{8},{16}4/7,6/5,{8},1/8,2/7,
{16}6,5,7,2,4,4h[8:1],,8,,1/6,,8/3,,6,{8}5,
{16}4,5,2,6,4,4h[8:1],,1-5[32:3],,8/3,,1/6,{8},{16}6,6,
4,5h[8:1],,2,{8}8h[8:1],{16}4,6h[8:1],,1,5,5,2,2,4,3,
6,6,5,7,2,2,8,1,7>2[32:3],3,6,5,{4}4b/7bpp2[8:3],
{8}3,3,4,4,{4}5>2[32:3],{8}6/5,7,
{16}7,1,,1,{8}3,{16}3,5,,5,{8}7,{4}1b/8bqq5[8:3],
{8}3,3,2,2,1,6,5,4,
8,3,{16}4,4,5,2,{4}2<7[32:3],5b/2bqq7[8:3],
{8}6,6,5,5,{4}4<7[32:3],{8}3/4,1,
{16}1,7,,7,{8}5,{16}5,3,,3,{8}1,{4}8b/7bqq4[8:3],
{8}1,1,2,2,{4}3h[8:1]/6h[8:1],{16}4,5,3,4,
2,7,5,6,3,4,2,7,1-5[32:3],5,3,7,{8}1b,8,
{16}6,4,5,3,7,7h[8:1],,8-4[32:3],,2/6,,4/8,{8},{16}3,3,
4,2,5,1,7,7h[8:1],,5-1[32:3],,3/7,,1/5,{8},{16}8,8,
1,1h[8:1],,3,{8}1h[8:1],{16}5,1h[8:1],,7,1,5/1,{8},{16}3,3,
4,1,{8},{16}1/6,2/5,{8},{16}3/8,7/4,{8},8/1,7/2,
{16}4,6,3,5,2,2h[8:1],,1-5[32:3],,7/3,,5/1,{8},{16}6,6,
5,7,4,8,2,2h[8:1],,4-8[32:3],,6/2,,8/4,{8},{16}1,1,
8,8h[8:1],,6,{8}8h[8:1],{16}4,8h[8:1],,2,8,8,1,4,2,2,
8,3,7,4,6,5,5,5,{8}5,3/7,{16}1b,2,3,4/7,
6,5,4/2,2h[8:1],,8,,7,1,6,{8}8,{16}7,6,5,4/1,
2,3,4/6,6h[8:1],,8,,1,7,2,{8}8,3b/7b,2,
{16}5,3,6,4,8,8h[8:1],,5-1[32:3],,3/7,,1/5,{8},{16}2,8,
3,7,4,6,2,2,4,3,8,8,1,1,7,6,5,4/8,
7,6,5/8,8h[8:1],,4,,5,7,3,{8}5,{16}2,3,4,5/1,
2,3,4/1,1h[8:1],,5,,4,2,6,{8}4,{4}5bpp1[32:11],
5b/2b-4[32:3],2b,{16}8,3,7,4,{8}6/5,2/1,
3/4,8/7,4/5,2/6,{32}6-2[32:3]/2-6[32:3],3/7,4/8,5/1,{8},{4}2b/6b,
{16}8,2,7,3,5,5,3,4-8[32:3],2,6,8,4,{8},{16}2,1,
3,8,4,4,6,5,8,1s5[8:1],5,3,7,1,{8},{16}6,6,
4,5,3,4,2,2,4,5,5,7,2,2,6,5,7,3,
5,2,6,1,7/8,2/6,{8},{16}1/2,3/7,{8},{16}8,5,6,6,
3,4,2,7,1,1,6,5-1[32:3],7,3,1,5,{8},{16}7,1,
5,3,8,8,2,6,1,8z4[8:1],4,6,2,8,{8},{16}3,3,
6,4,8,2,7,7,5,3,3,1,7,7,{8}5b>2[32:3],2b/8b<5[32:3],
5b,8b,1b,3b/4b,{16}5/1,6/2,7/3,8/4,{8}1h[8:1],{16}3,7h[8:1],
,3,{8}5h[8:1],{16}4-8[16:1],6,2,4,,1,1,1,{8}7h[8:1],{16}1,3h[8:1],
,1,{8}5h[8:1],{16}1-5[16:1],7,3,1,,4,4,4,{8}6h[8:1],{16}4,2h[8:1],
,4,{8}8h[8:1],{16}4-8[16:1],6,2,4,,1,1,1,{8}7h[8:1],{16}3,5h[8:1],
,1,{8}3h[8:1],{16}8b-4[16:1],{8},{16}8b/6b-2[16:1],{8},6b/2bqq4[3:1],{4}1bs5[24:5],
E
