&title=my dad after hearing my mom was pregnant
&artist=Shittypedia
&first=-0.34
&des=HL
&lv_5=13
&inote_5=(276)
{1},
{4}1,1,1,1,8,8,8,2,7,7,7,7,1-6[138#16:1]/8-3[138#16:1],,1b/8b,,
{4}5<7[8:1],,{8}1,{16}8,1,8,,{8}1,8,1,8,2,7,2,7,2,8,1,8,1,8,2,1,2,1,,2-7b[8:1]/3-6b[8:1],23,23,,,,{12}5,4,5,4,,3,6,3,6,{8}2,7,1,8,1,8,1,7,2,7o,2,7,2,{16}1,8,1,,
{8}7,2,6,3,4,5>6[4:1],,5b,,,,{32}1,2,3,4,{24}5,6,7,8,{16}1,2,3,{12}4,5,6,7,{64}8,,,,1,,,,,,,,{8}2,6,3,6,4,5,3,6,{16}4,5,4,,{8}6,{16}4,5,4,5,4,,{8}6,3,7,2,7,2,
{32}E3,B3,B4,E5,A5,E6,B6,B7,E8,A8,,,,,,,{12}2,1,2,1,,3,8,3,8,
{16}5,6,5,,47,,{8}6,5,7,5,6,4,5,{16}3,4,3,,{8}4,{16}2,1,2,,38,,{8}7,8,{1}1pp6[1:1]/8pp3q6b[1:1],,
{8}1,{16}8,1,8,,{8}1,8,1,7,2,7,2,7,1,8,1,8,1,8,,7-2b[8:1]/6-3b[8:1],76,76,,,,{12}4,5,4,5,,6,3,6,3,{8}7,2,8,1,8,1,8,2,7,2,7,2,7,{16}8,1,8,,
{8}2,7,3,6,5,4<3[4:1],,4b,,,,{32}8xb,7x,6x,5xb,{24}4x,3x,2x,1xb,8x,7x,6x,5xb,,{32}1xb,2xb,3xb,4xb,{24}5x,6xb,7x,8xb,1x,2xb,3x,4xb,,{8}7,6,3,6,4,5,3,6,{16}5,4,5,,{8}3,{16}5,4,5,4,5,,{8}3,6,2,7,2,7,
{32}E7,B6,B5,E5,A4,E4,B3,B2,E2,A1,,,,,,,{12}7,8,7,8h[12:1],,6,1,6,1,
{16}3,4,3,,52,,{8}3,4,2,4,3,5,4,{16}6,5,6,,{8}5,{16}7,8,7,,61,,{8}2,1,{1}8-2-6-4[4:7]/1-7-3-5[4:7],,{8},,4x<7[8:1]/3x>7[8:1],
