&title=ゴールデンレイ
&artist=はるまきごはん/アニメ「ライザのアトリエ~常闇の女王と秘密の隠れ家~」OP
&smsg_5=太ももの錬金術師
&first=0.55
&lv_1=1
&lv_5=12+
&des_1=音
&des_5=GANTZの錬金術師
&wholebpm=162
&demo_seek=56.6
&demo_len=11.2
&inote_1=(162)
{6}1,8,1,8,1,8,1,8,1,8,1,8,1,8,1,8,1,8,1,8,1,8,1,8,1,8,1,8,1,8,1,8,
1,8,1,8,1,8,1,8,1,8,1,8,1,8,1,8,1,8,1,8,1,8,1,8,1,8,1,8,1,8,1,8,E
&inote_5=(162)
{12}
1h[12:1],,2h[12:1],,3h[12:1],,4h[12:1],,5h[12:1],,6h[12:1],,
7h[12:1],,8h[12:1],,1h[12:1],,2h[12:1],,3h[12:1],,48,,
2v5[6:1]/8,,8,2,,7,7,,35,,1,,
7v4[6:1]/1,,1,7,,2,2,,46,,8,,
2V84[3:1]/8,,8,2,,6,6,,7,,8,,
3,8,3,8,3,8,2b/7b,,,,,,
16,,3,3h[6:1],,8,8h[3:1],,2,,4,,
38,,6,6h[6:1],,1,1h[3:1],,7,,5,,
26,,4,8,4,8,4h[2:1],,8,,6,,
5,,2,4pp8[2:1],2,,4b/2,,,,,,
2,,8,82,,1-5[6:1],17,,1,,7,,
46,,3,5,3,5,3h[2:1],,5,,7,,
1,,28,28,,17,17,,2,,6,,
1q5[4:1],,,5q1[4:1],,,7,,,,,,
1,8,2,7,1,8,2,,27,,4b/5,,
1,8,2,7,1,8,2,,27,,4b/5,,
1,8,2,7,1,8,2,,27,,4b/5,,
2,4,2,7,5,7,3,4,3,6,5,6,
4b/7b,,3,6,,2v8[6:1],2,,25,,7,,
17,,2,8,,3v5[6:1],3,,38,,6,,
46,,5,3,,4v7[6:1],4,,24,,3,,
8p4[4:1]/4,,,4p8[4:1],,,2,,,,,,
12,,8-5[6:1],82,,8v3[6:1],1,,8,,6,,
78,,1-4[6:1],17,,1v6[6:1],8,,1,,3,,
2h[6:1]/7h[6:1],,,,1h[6:1],,8h[6:1],,,,18,,
27,,3bV15[3:1]/6bV84[3:1],,,,,,,,,,
4h[6:1]/5h[6:1],,,45,,3,6,,2,,27,,
4h[6:1]/5h[6:1],,,45,,3,6,,7,,27,,
12,,38,,47,,34,,25,,16,,
18,,27,,36,,4h[6:1]/5h[6:1],,,,27,,
1-5[6:1]/8,,8,1,,6-8[6:1],6,,36,,2,,
1/8-4[6:1],,1,8,,3-1[6:1],3,,36,,7,,
18,,2h[6:1],,7h[6:1],,3h[6:1],,6h[6:1],,4h[6:1],,
5,,,2V84[3:1]/7V15[3:1],,,2b/7b,,,,,,
4,5,3,6,4,5,3,,36,,1b/8,,
4,5,3,6,4,5,3,,36,,1b/8,,
4,5,3,6,4,5,3,,36,,1b/8,,
2,4,3,7,5,6,4,,36,,1b/8b,,
1,27,,2^5[6:1],8,2v5[6:1],2,,2,,3,,
8,27,,1^4[6:1],8,1v6[6:1],1,,1,,2,,
1,27,,1,8,2,7,3,6,,25,,
34,34,,16,,,28,,,1w5[6:1]*w5[6:1],,,
1b,,,,,,5pp8[4:3],,4,,3,,
2h[6:1],,,,2,3,4,,,,12,,
3h[4:1]/8h[4:1],,,,,,4qq1[4:3],,5,,6,,
7h[6:1],,,,7,6,5,,,,17,,
8,27,,7^4[6:1],1,7v4[6:1],7,,7,,6,,
18,27,,8^5[6:1],1,8v3[6:1],8,,8,,7,,
18,27,,4,5,3,6,2,7,,36,,
18,18,,2-6[6:1]*-6[6:1]/7,,,28,,,8w4[6:1]*w4[6:1],,,
8b,,,,,,4qq8[4:3]/5,,5,,6,,
7,,7,,7,6,5,,,,78,,
1h[4:1]/6h[4:1],,,,,,5pp1[4:3]/4,,4,,3,,
2,,2,,2,3,4,,,,12,,
1b/8h[4:1],,,7h[4:1],,,6h[6:1],,5,,45,,
3h[4:1],,,6h[4:1],,,2h[6:1],,7,,18,,
1h[4:1],,,2h[4:1],,,3h[6:1],,4,,5,,
56,,47,,38,,12,,,,,,
,,,,,,,,,E
