&title=天使にふれたよ!
&artist=放課後ティータイム
&first=0.48
&des=あずにゃん
&lv_5=11+
&inote_5=(117)
{1},
{1},
{8}2h[8:3]/4,5,6,7h[8:4],,6,5,1h[8:4],
{8},3,4,5,{24}7,6,5,43,,,
{16}2,2,1,,
{8}3b/8b,4V28[8:2]/7,5/6,8bV64[8:2],,4bV25[16:9],,8bV27[16:5],
{8},,,,,5/7,5/7-5[32:3],,
{8}4-7[8:1],,,8<5[8:1],,,1h[4:1],,
{8}4-7[8:1],,,8<5[8:1],,1,2h[4:1],,
{8}4-8[8:1],,,1<6[8:1],,,2h[4:1],,
{8}4-8[8:1],,,1<6[8:1],,2,3,3h[8:1],
{8}5-2[8:1],,,1>4[8:1],,,7h[4:1],,
{8}6-2[8:1],,,1>4[8:1],,8,7h[4:1],,
{8}5-1[8:1],,,8>3[8:1],,,6h[4:1],,
{8}5-8[8:1],,,7>2[8:1],,5,4-6[32:3],,
{8}2-4[32:3],,,6q2[8:1],,5,4,3,
{8}3v5[8:1],,,6q2[8:1],,5,4-6[32:3],3,
{8}2-4[32:3],,,7p3[8:1],,8,1,2,
{8}2v8[8:1],,,7p3[8:1],,8,1<6[8:1],2,
{8}3p7[8:1],3,,6q2[8:1],,5,4,3,
{8}2>5[8:1],2,,7p3[8:1],,8,1,{16}2,1,
{8}2-4[32:3],5,2-8[32:3],7-5[32:3],2-6[8:1],7,2,1,
{8}28,37,46,18,3h[8:1],4h[8:1],{16}1,7,5,8,
{8}2b-5[8:1],3,8-3[8:1],7,4-1[8:1],5,6-3[8:1],7,
{8}8q6[8:2],,1V35[32:7],1,,,6,8,
{8}57,1,24,7,56,47,8V62[8:2]/3,,
{8}2V84[8:2],,4w8[8:1],,,,26,35,
{8}4<8[4:1],,8>4[4:1],,4V68[4:1],,8V24[4:1],,
{8}4V62[4:1],,,8h[16:1],8-4[8:1],,1,2,
{8}3,24,6,75,2,13,7,68,
{8}5h[4:1]/1,,6h[4:1],,8h[4:1],,{32}2,3,4,5,6,7,8,1,
{8}2pp6[8:2]/6,,21,8,7<4[8:1],,7/8,1,
{8}2pp5[8:2]/6,,21,8,7,65,54,34,
{8}2/5pp1[8:2],,4/5,3,2>5[8:1],,12,7,
{8}6h[8:1]/5h[8:1],,7V16[16:3]/4V25[16:3],56,74,,,87,
{8}16,2<3[16:5]/5,34,2b/8,,,5,12,
{8}83,7>6[16:5]/4,65,7b/1,,,4,87,
{8}2>6[8:1]/5,,7<3[8:1],,2>6[8:1],,7<3[8:1],,
{8},1-5[8:1],2-4[32:3],1-7[32:3],2-6[8:1],1,2,,
{8}7V51[16:3]/5,,17,2,2>5[8:1],,2/1,8,
{8}7V53[16:3]/5,,78,1,2h[4:1],3,1h[4:1],3,
{8}2V84[16:3],,25,6,7>2[8:1],,27,3,
{8}4qq4[4:1],,5,6,6pp6[4:1],,,4,
{8}3,26,15,4w8[8:1]/8,,,,26,
{8}26,37,48,5w1[8:1]/1,,,,3qq5[4:1]/7qq1[4:1],
{8}37,,,,{16}15,,,48,,,{8}37,
{8}2q7[8:1],,6>3[8:1],,8,{16},1,1,8,2,7,
{8}3-8[8:1],3,6-3[8:1],6,8,1-5[8:1],2,1b/3b,
{8},{16}4-8[8:1],5,4,,{8}2b/4b,,
3<6[8:1],2,8-5[8:1],
{8},4-7[8:1]*p8[8:1],3,4,,7pp5[8:2]/8>3[8:1],16,78,
{8},3-7[8:1],4,5p1[8:1],,7>2[8:1],6,5p1[8:1],
{8},7>2[8:1],6,5p1[8:1],,7pp2[8:3],6,5,
{8},4,4pp2[8:3],,1,,8,8,
{8}7h[4:1],1,3h[4:1],1,6h[4:1],8,4h[8:1],1>4[8:1],
{8},5,6,7<4[8:1],3,2,1q4[8:4]*p6[8:4],,
{8}1,,,,,,46,,
{8}37,37,37,37,15,15,15,{16}3,4,
{8}2-8[32:3],4,5-8[8:1],6,4-1[8:1],3,6-2[8:1],7,
{8}6/4-8[8:1],3,4/7>6[8:3],6,2h[8:1],,1h[8:1],,
{8}7qq3[8:2]/3,,78,1,2>5[8:1],,2/1,8,
{8}7qq4[8:2]/3,,78,1,2,34,45,65,
{8}7/4qq8[8:2],,5/4,6,7<4[8:1],,87,2,
{8}3h[8:1]/4h[8:1],,2qq3[32:7]/5pp4[32:7],43,25,,,12,
{8}83,7>6[16:5]/4,65,7b/1,,,1,87,
{8}16,2<3[16:5]/5,34,2b/8,,,8,12,
{8}7<3[8:1]/4,7,2>6[8:1],2,7<3[8:1],7,2>6[8:1],2,
{8}7,8-4[8:1],7-5[32:3],8-2[32:3],7-3[8:1],8,7,,
{8}3qq4[16:4]/5,,83,6,5pp4[8:2],,8,1,
{8}2<7[16:2],,27,6,5h[4:1],7,4h[4:1],7,
{8}6pp4[16:4],,61,2,3qq5[8:2],,38,7,
{8}6>3[8:1],,2,1,8>3[8:1],,,5,
{8}6,37,48,1w5[8:1]/5,,,,73,
{8}73,62,51,8w4[8:1]/4,,,,6pp4[4:1]/2pp8[4:1],
{8}62,,,,{16}84,,,51,,,{8}62,
{8}7p2[8:1],,2q7[8:1],,1,{16},8,8,1,7,2,
{8}7h[8:3]/5,4,3,2h[8:4],,3,4,8h[8:4],
{8},6,5,4,{24}2,3,4,56,,,
{16}7,7,8,,
{8}6b/1b,5<1[8:2]/2,4/3,1b>5[8:2],,5pp3[16:9],,1bqq3[16:5],
{8},,,,,2,3,8bqq8[8:3],
{16},,,,,,{32},1h[128:1],,,,2h[128:1],
,,,,3h[128:1]/8,,,,,4h[128:1],,,,,
{32},,4h[128:1]/5h[128:1],,,,,,,2b/7b,,,,,,,,,,,,,,,,,,,,,,,
