&title=【野猫】Wholeheartedness
&artist=BlackY
&first=0.02
&des=米基哈
&lv_5=14
&inote_5=(154){1},,
{48}1bx/8bx,2x/7x,3x/6x,4x/5x<4[16:9],,,
{8},,,
,,,,
{16}E6/7h[16:2],,,
E4/2h[16:2],,,
6h[16:2]/B1,,,
3h[16:2]/B6,,,
1/8,,,,
{48}8bx/1bx,7x/2x,6x/3x,5x/4x>5[16:9],,,
{8},,,
,,,,
{16}3h[16:2]/B1,,,
6h[16:2]/B7,,,
2h[16:2]/B4,,,
8h[16:2]/C,,,
3/6,,,,
{16}1x-5[8:1],,,,
8/1,,,,
7h[16:3],,,
5h[16:3],,,
4,,
{16}1bx-5[8:1],,,,
1/7,,,,
8h[16:3],,,
6h[16:3],,,
4>5b[4:3],,
{16}1hbx[1:1],,,,
,,,,
,,,,
,,,,
{16}4,,,1/2,
,,6,5,
,7/8,,1/5,
,,7bq1[4:3]/3bq5[4:3],,
{16},,,,
,,,,
,,,,
,,,,
{16}2z6[4:2],,,,
,,,,
8x-4[8:1],,,,
,,,,
{16}1b/8b,,,,
2h[16:2]/4,,,,
2h[16:3]/1,,,4,
2h[16:2],,1,,
{16}1b-4[12:1],,,
3b-7[12:1],,,
5b-8[12:1],,,
1b-4[8:1]*-6[8:1],,,
,,,,
{16}8bx,,,,
7h[16:2]/5,,,,
7h[16:3]/8,,,5,
7h[16:2],,8,,
{16}7x,,6b-1[12:1],,
,2b-6[12:1],,,
5b-2[12:1],,,1b,
,,1x,,
{16}3v8[8:1]/7-4[8:1],,,,
3b/7b,,,,
1h[16:3]/4,,,5,
1h[16:2],,7,,
{16}1b-6[12:1],,,
7b-3[12:1],,,
5b-2[12:1],,,
1b,,,
7,,1hx[8:2]/5hx[8:2],,
{16},,,,
,,2x/4h[4:2],,,
,8x,,,,
5x,,
{16}E8,,,,
E3/B3,,,,
E2/E8,,,E3/E7,
,,E6/E4/E5,,
{16}1,8,,3V52[16:3]/4,
,2,,5,
,7,,,
6h[4:1],,8,,
{16}5,6,,4-8[16:2]/7,
,2,,1/4,
,3,3,,
1,,3,4,
{16}3-7[8:1],,,8,
,6,,5-1[8:1]/1,
,,2,,
3,,4,,
{16}5/7h[16:2],,5,7,
,2/4,,1,
,2,4,3,
7,5,6,2,
{16}8,8,,6xV47[16:3]/5x,
,7,,4,
,2,,,
3h[4:1],,1,,
{16}4,3,,5-1[16:2]/2,
,7,,8/5,
,7,6,5,
4x,3,2,1,
{16}8b-4[8:1],,,5,
,,1,,
2-5[8:1],,5-1[8:1],,
2,,7,,
{16}6hx[16:3],,,1,
6,,,4,
3hx[8:1]/7hx[8:1],,,,
2,7,1,8,
{16}2bz6z2[16:10]/7bs3s7[16:10],,,,
,,,,
,,,,
,,,,
{16}6,5,,4-8[16:2]/7,
,2,,1/4,
,3,3,,
1x,8,7,6,
{16}3-7[8:1]/5,,,8,
,6,,5-1[8:1]/1,
,,2,,
3,,4,,
{16}5/7h[4:1],,6x,5,
4,3,2,1,
7,6,5,4,
1,2,3,4,
{16}8,8,,3/5,
,2,,5h[8:1],
,7,5,,
3h[8:1],,1,3,
{16}7h[16:3],,,
5-2[8:1],,8-4b[8:1],,
5,,8,,,
1,,3/6,,
{16}2,,8,1,
,1,,2bh[16:3]/8,
,,{24}7x,6x,5x,
{16}4x/8,,2bqq5[16:10]/6b,,
{16},,,,
,,,,
,,,,
,,,,
{16}2h[16:2]/6h[16:2],,,
3h[16:2]/4h[16:2],,,
8h[16:2]/6h[16:2],,,
2h[16:2]/3h[16:2],,,
1-7-5-3-1[4:3]/5,,,,
{16},,,,
5xV71b[4:1],,,,
,,,,
,,,,
{16}5h[16:2]/6h[16:2],,,
8h[16:2]/3h[16:2],,,
4h[16:2]/5h[16:2],,,
1h[16:2]/7h[16:2],,,
6/2pp4>8[4:3],,,,
{16},,,,
8x<4b[4:1],,,,
,,,,
,,,,
{16}7h[16:2]/3h[16:2],,,
6h[16:2]/5h[16:2],,,
1h[16:2]/3h[16:2],,,
7h[16:2]/6h[16:2],,,
8<5s1[4:3]/4,,,,
{16},,,,
4xz8b[4:1],,,,
,,,,
,,,,
{16}1bpp4[4:2]/5bpp8[4:2],,,,
,,,,
,,,,
,,,,
{16}1/8,,1/8,,
2/4,,2/4,,
3/6,,3/6,,
4/8,,4/8,,
{16}1b,,,,
3-5[12:1]/5,,,6-2[12:1],
,,1-7[12:1],,
,5,,,
{16}4/6,,,,
6-4[12:1],,,3-7[12:1],
,,8-4[12:1]*-2[12:1],,
,,,,
{16},,2-4[12:1],,
,1-5[12:1],,,
8-6[12:1],,,4,
,,1,,
{16}1pp3[8:1]/5pp7[8:1],,,,
1/5,,,,
2-5[12:1]/6-1[12:1],,,,
2/6,,,,
{16}1/8,,2,4,
3,,2/4,,
1/8,,7,5,
6,,7/5,,
{16}2/8,,3,4,
2,,1/5,,
7/1,,6,5,
7,,8/4,,
{16}1x,2,3,4,
5x,6,7,8,
{24}1x,8,1,8,1,8,
1-5[12:1],8,1,8,1,8,
{16}1b,,,,
,,4hbx[4:1]/5bx,,
,,7h[16:3],,
,1b,,,
{16}1-5[8:1],8,,8,
1,,6,,
7-4[8:1],8,,8,
7,1bh[16:3],,,
{24}4x-8[8:1],2/5,3/6,
4/7,,,
{16},,7h[8:1],,
5,7,3,5h[16:2],
,1,5,,
{16}7-4[8:1],8,,8,
7,,3,,
1-5[8:1],8,,8,
1,7bh[16:3],,,
{24}4bxw8b[8:1],6/3,5/2,
{16}4/1,,
,,,2/4,
,1/8,,7/5h[16:3],
,,4,,
{16}1/2,2,,4,
3/5,,1/8,,
5>2[8:1]/6,,,7,
,6,,,
{16}8/7,7,,5,
6/4,,1/8,,
3<6[8:1]/2,,,8,
,1,,,
{16}7/2h[16:3],,,1,
3q5[16:5],,4-8[16:3],,
,,,,
,,,,
{16}8/6,,6/4,,
4/2pp6[16:6],,,,
4,,,6,
,,8,,
{16}8-4[8:1],1,,1,
8,,3,,
2-5[8:1],1,,1,
2,8bh[16:3],,,
{24}4x,3/7,2/6,
{16}1/5,,
8x,1,2,3,
5,6,7,8,
2,3,4,5,
{16}8x,6,7,1x,
3,2,7x,5,
6bV47[16:2],,,6b/3b,
,1bw5[12:1],,,
{16}1b/8b,,,,
1x/8x,1x/8x,,3,
4/2,,1/8,,
6,5/7,,,
{16}2bx-4[8:1]/4bx-8[8:1],,,,
,,,,
1b-5[8:1]/3,,,4,
,2x,,,
{16}6bx-1[8:1]/8bx-4[8:1],,,,
,,,,
5b-1[8:1]/7,,,8x,
,6,,,
{16}3,5,1,
6,4,8,
3,6,
1h[16:3],,,3h[16:2],
,7,,,
{16}2b-7[12:1]/6b-3[12:1],,,2b/6b,
,,1bs5[8:1]/5b,,
,,,,
,,,,
{16}2,4/2,,7,
5/7,,4,6,
2h[16:2],,4,2,
,6,3,,
{16}7,5/7,,2,
4/2,,5,3,
7h[16:2],,5,7,
,1,8,,
{16}3,3/1,,6,
6/8,,4,7,
2h[16:2],,1,2,
,7,8,,
{16}3,5h[8:1],,1h[16:4],
,2,,8x,
7,6,5,4,
1,2,3,4,
{16}6b,7/5,,3,
4/2,,5,3,
7,1,6,2,
5,3,4,,
{16}2b,1/3,,7,
8/6,,1,7,
3,5,2,6,
1,7,8,,
{16}6b/5b,7/4,,1b/2b,
,4/3,,7b/8b,
,56,,1b/8b,
,2/6,3/7,,
{16}4/5,,3,1/5,
,6,8/4,,
{24}3x,2,1,
8/5x,4,3,
2/7x,6,5,
4/1x,8,7,
{16}1hb[16:2]/6,,,
3hb[16:2]/4h[16:2],,,
8hb[16:2]/2h[16:2],,,
5-1[8:1]/6b,,,
1b-7-2-6-3-5[4:3]/5,,,,
{16}6xh[4:3],,,,
,,,,
,,,,
,,,,
{16}8hb[16:2]/3h[16:2],,,
6hb[16:2]/5h[16:2],,,
1hb[16:2]/7h[16:2],,,
4-8[8:1]/3b,,,
8b-6-1-5-2-4[4:3]/4,,,,
{16}5xh[4:3],,,,
,,,,
,,,,
,,,,
{16}3hb[16:2]/5h[16:2],,,5hb[16:2]/7h[16:2],
,,2h[16:2]/4hb[16:2],,
,3b-7[8:1]/7b,,,
3bx[4:3]/1b-3-5-7-1[4:3],,,,
{16},,,,
,,,,
,,,,
,,,,
{16}6hb[16:2]/4h[16:2],,,4hb[16:2]/2h[16:2],
,,7h[16:2]/5hb[16:2],,
,1bs5[8:1]/8b,,,
1b/8b<1[16:32],,,,
{16},,,,
,,,,
,,,,
,,,,
