&title=起死開戦
&artist=Millsage
&first=0.17
&des=石川 もりひめ
&lv_5=14
&inote_5=(170)
{4},,,4,4qq2qq8[4:4]/5h[8:3],,,5h[4:1],,5x,5pp7pp1[4:4]/4h[8:3],,4,4,3,3x,
{4}2pp4>8[4:2],,6,7qq5<1[4:2],,3,2,1h[4:3]/Ch[4:1],{24},,E1,B8,B7,B6,{4}E6,5,2x/4x,3x/5x,4x/6x,Chf[4:4]/5hx[4:4],,,,,
{16}3hx[16:4]/5hx[16:2],,,,4,4,3,,4hx[8:1]/5hx[8:1],,,,6hx[16:4]/4hx[16:2],,,,5,5,6,,5hx[8:1]/4hx[8:1],,,,
{24}3x,4,5,6x,7,8,1x/5x,4,3,2x,1,8,7x/4x,5,6,7x,8,1,2-6-1x[4:1]/5hx[4:1],,,,,,,,,7,,,{4}7,
{16}4bx/7bx,,5,6bx,,6,5bx,,4bx/7bx,,3x/6x,,5bx/2bx,,4,3bx,,3,4bx,,5bx/2bx,,6x/3x,,
{16}4bx,7,3,7,2x,7,1bx,7,1-6-3-8[8:3]b,6,1x,5h[16:7],1bx,,,,,,,,1x/5x,,,,
{16}2,,2,4,,4,3,,5,,4,,6,,5h[8:1],,7,,7,5,,5,6,,4>1[8:1],,5,,4/6,,,,{8}8,7,6,5<8x[8:1],,2,3,4,5/1,3hx[4:1]/7hx[4:1],,,
{16}6,,6,5,,5,6,,4,,5,,3,,4,,3,,3,4,,4,3,,5<8[8:1],,6,,5/1,,2,3,4x,,,2hx[16:3]/6x,,,1x,,,3x/7hx[16:3],,,5<8x[8:1],,,3x,,,2>5x[8:1],,1,,2/8,,
{8}7b-3x[8:1],6,{16}7x/1<6x[8:1],,,,1>4[8:1],,5,5,1,,7,7,{8}8-6[8:1],2/6,4x/8-2x[8:1],2,8-4[8:1]/4,6,4x/8x,3,
{8}2-5[8:1]/6-1[8:1],1/5,2x/6x,,{16}8<5[8:1],,4,4,8>3[8:1],,4,4,{8}8-5[8:1],4-1[8:1],8-4x[8:1],4,8w4x[8:1],,8bx,,
{8}1>4x[8:1]/5<8x[8:1],4/8,{16}1-5[8:1]/5,,,,1-3x[8:1],,7,7,1-7[8:1],,7,7,{8}1-5x[8:1],5-3-8[8:1],1,7,6w2x[8:1],7,6bx,,
{16}4hx[8:1]/8hx[8:1],,,5hx[8:1]/6hx[8:1],,,2x/5x,,{24}7bx/8bx,1x/6x,2x/5x,3x/4x,,,{16}5hx[8:1]/2hx[8:1],,,4hx[8:1]/3hx[8:1],,,5x/6x,,{24}2bx/1bx,8x/3x,7x/4x,6x/5x,,,
{8}2pp4>8[4:4]/7h[8:2],,,6h[8:2],,,5h[8:2],,,6h[8:2],,,{8}7qq5<8x[4:3]/2hx[8:2],,,3h[8:2],,,4h[8:2],,,3,2b/4b,,
{16}2b/5b,,3,4,3,,4b/7b,,6,5,6,,3b/4b,,5/1,,7,8,7b-3[8:1],,6,,7/8,,,1bx,,,2bx/8bx,,5bx/7bx,,2x/4x,,1x/8-4pp6x[16:7]*-4qq2[16:7],,1bx/8bx,,,,,,,,,,,,
{4}4-2-8>4x[4:10]/5hx[4:4],,,,,,6,6,6hx[4:5],,,,5h[4:1],,{12}6,6,5,7b-3[8:1],,,
{8}7b/1b,,2,2,3/5,3/5,6,6,4/7,4/7,8,8,1/7,1/7,2,2,
{16}3,4,2,5,1hbx[8:1],,8,4,7,5,6hbx[8:1],,3,7,1,5,3b>8x[8:1],,,,{24}3x/8w4x[8:1],7x,6x,5x,,,{8},,2x/6x,,
{16}1bx,4,3,4,3,4,8bx,5,4,5,4,5,1bx,,8,2x,7b-3x[8:1],1,6x,,7bx/1x,,,,8bx,5,6,5,6,5,1bx,4,5,4,5,4,8bx,,1,7x,2v8[8:1]*v4[8:1],,,,,,,,
{16}3/7,,3/7,,6x,4,,4,,5,3,,{8}4-8x[8:1]/2x,5,2-5[8:1]/4,1,7-3x[8:1]/2x,6,1>4[8:1]/7,2,{16}1x/5x,6,7,,6x,7,8v5[8:1]*v3[8:1],,1/7,,8bx,,,,{8}2b-6[8:1]/7b-1[8:1],1,2b/7b,,{16}3bx,4,2,6,5,7,3,4,2,2,{24}8bx,7x,6x,5x,,,
{16}1bx/6bx,,1-5[8:1],4,2,6,1bx,,,7,7,,4bx/8bx,,7,5,6-2[8:1],4,7bx,5,6,,3,3,7-4[8:1],,1,1,7x,,2,,
{16}8bx/3bx,,8<5[8:1],5,7,3,8bx,,,2,2,,5bx/1bx,,2,4,3-7[8:1],5,2bx,4,3bx,,6,6,1bx>4[8:1],,8,8,1bx,,7,,
{16}3bx/8bx,,2,1,3,8,4x,7,2bx,6,1,7bx,3-7[8:1],5,2bx,1,3b-1x[8:1],,8,8,3b-5x[8:1],,6,6,3b-7x[8:1],,8,8,3bx,,,,
{16}1bx/6bx,,3,4x,,6,5x,,{24}2x,3x,4x,5x,,,{16}3bx/7bx,,6,5x,,3,4x,,{24}7x,6x,5x,4x,,,{16}2bx/6bx,,3,4x,,6,5x,,{24}2x,3x,4x,8x,7x,6x,{4}1bv3>1x[4:1]/5bv7<5x[4:1],,,
{16}2h[16:2]/4,,5,3h[8:1],,6,4h[8:1],,7,,5/6,,
4/7h[16:2],,5,6,,6,,4,,4,5,,3/4h[16:2],,2,,
1/7h[8:1],,2,8h[8:1],,3,1h[8:1],,2h[8:1],,4,,
3bx/5bx,,6,5,7,,4bx/6bx,,3,4,2,,1bx/8bx,,2x/7x,,
{16}3x,4,2,7x,5,6,1x,4,2x,,3x/5x,,5x,4,6,2x,4,3,8x,5,7,1x,4,3,5x,,4x/6x,,7x,8,6,2x,1,3,7x,5,6,3x,4,,{32}1bx,2x,3x,4x,,,7bx,6x,5x,4x,,,2bx,3x,4x,5x,,,8bx,7x,6x,5x,,,{16}3x,4x,3x,4x,{32}2bx,3x,4x,5x,,,8bx,7x,6x,5x,,,1bx,2x,3x,4x,,,7bx,6x,5x,4x,,,{8}2hx[16:1],2hx[16:1],
{4}1-7-5-3x[4:4]/3x,,{8}2h[16:1],2h[16:1],2h[16:1],2h[16:1],1h[16:1],1h[16:1],1h[16:1],1h[16:1],1,1h[16:1],2x/8x,,
{16}3bx/7bx,,6,5bx,,5,6bx,,4bx,,3/5,,2bx/4bx,,2,4bx,,4,3bx,,4bx/5bx,,6,,
{16}5x/7h[4:1],,,,{12}E5,E6,E7,E3,E4,E5,E1,E2,E3,E7,E8,E1,E5,E6,E7,E3,E4,E5,{16}1x,5x,1x,5x,
{16}4bhx[8:1]/8bhx[8:1],,,5hbx[8:1]/6hbx[8:1],,,2bx/5bx,,{24}7bx/8bx,1x/6x,2x/5x,3x/4x,,,{16}5hbx[8:1]/2hbx[8:1],,,4hbx[8:1]/3hbx[8:1],,,5bx/6bx,,{24}2bx/1bx,8x/3x,7x/4x,6x/5x,,,
{8}2<7x[8:1]/7<4x[8:1],1/6,7-1-3[4:1]/2,,{16}5x,,,6,{8}6-1[8:1],7,4-8[8:1]/6,3,5-1[8:1]/4,6,3-8x[8:1]/5x,2,5/3,6,
{8}7>2[8:1]/2>5[8:1],3/8,2x-8-6[4:1]/7x,{16},4x,4x,,,3,{8}3-8[8:1],2,5-1x[8:1]/3x,6,4-8x[8:1]/5x,3,6-1x[8:1]/4x,7,4bx/6bx,,
{8}2<7x[8:1]/7<4x[8:1],2/7,7-1-3[4:1]/2,,{16}5x,,,6,{8}6,7x,8>3[8:1]/4,7,4-8x[8:1]/8x,5,7<4x[8:1]/4>1x[8:1],6,4x/7x,,
{16}8hbx[8:1],,,2hx[8:1]/4hx[8:1],,,5x/7x,,5hx[4:1]/7x,,,,1hbx[8:1],,,5hx[8:1]/7hx[8:1],,,2x/4x,,2-6x[8:1]b/4x,,,,
{16}2b<4x[4:4]/4bx`Cf,,,,,,3,,3h[8:1],,,,2h[8:1],,,2h[8:1],,,1,,1,,,,2bx/8bx,,7,5,6,,1bx/7bx,,2,4,3,,7bx,5x,8>6x[4:1],2x,1x,4x,8bx,,,,,,
{16}2x,4,3,6x,5,7,2x,1,3x,7,{32}1bx,2x,3x,4x,{16}7x,5,6,3x,4,2,7x,8,6x,2,{32}8bx,7,6,5,{24}1x,,,1bx/4bx,2x/5x,3x/6x,4hx[8:1]/7x,,,8x,,,8bx/5bx,7x/4x,6x/3x,5hx[8:1]/2x,,,1x,,,{32}1bx/4bx,2x/5x,3x/6x,4x/7x,5x/8x,6x,7x,8x,{8}1bx/Cf,,{24}4,5,2,
{4}4b-8x[8:1],,{16}2/6,,,4/7,,,1/5,,{4}1pp8[4:2]/5pp4[4:2],,,,
{16}2h[16:3],,,4h[16:3],,,3,,3,,5,,4h[4:1],,,,7h[16:3],,,5h[16:3],,,6,,6,,4,,5h[8:1],,3,4,2h[4:1],,,,1,,3/8h[4:1],,,,1,,2-5[8:1]/7h[4:3],,,,2,,,,6bh[8:1],,,,8,,6b/1hb[4:1],,,,8,,7b-4[8:1]/2b,,,,{4}2b<7[4:1],7<4[4:1],4>1[4:1],1<6[4:1],6>8[4:2],{8}3,2,1,,{4}7<4[4:1],4>1[4:1],1<3[4:2],Cf,,,8z4[8:3]/4,3,2,1bs5xb[8:3]/5bx,,,
{4}3bqq1qq7qq5qq3x[4:8]*qq1qq7qq5qq3[4:8]/7hbx[4:11]`3?qq1qq7qq5[4:6]`3?qq1b[4:2],,,,,,,,,,5-1b[8:1],5bx,
{16}2bx,4,3x,4,3x,4,1bx,4,3x,4,3x,4,1bx,5,4x,5,4x,5,8bx,5,4x,5,4x,5,7bx,5,4x,5,8bx,5,4x,6,1hbx[4:1],,,,{48}2bx,3bx,4bx,5bx,6bx,7bx,{8}8bw4xb[8:1],,8bx,,2x/6x,,{24}1bx/7bx,2x/6x,3x/5x,4x,,,2x/6x,,,{32}1bx/5bx,2x,3x,4x,5x,6x,7x,8x,1x/5x,,,,,,,,
{16}8bx/3bx,,8-4-6-8[4:1]b,5,7,3,8bx,,,2,2,,5bx/1bx,,2,4,3-7-5[16:3]b,5,2bx,4,3,,8,8,1b>4x[8:1],,8,8,1bx,,7,,
{16}3bx/7bx,,8<5[8:1],5,7,3,8bx,,,2,2,,4bx/8bx,,7,5,6-2-4[16:3]b,4,7bx,5,6,,1,1,8b<5x[8:1],,1,1,8bx,,2,,
{16}3bx/8bx,,2,1,3,8,4x,7,2bx,6,1,7bx,3-7[8:1]b,5,2bx,1,3b>1x[8:1]b,,1,8,3b<5x[8:1]b,,7,6,3b-7x[8:1]b,,8,7,3bx,,,,
{16}1,5,3,6,2,8,4,7,{24}1-5x[8:1]b,2x,3x,7-3x[8:1]b,6x,5x,{8}1bx,7bx,,{24}2x,4,3,5x,4,6,3x,5,2,
{6}4bx,5bx/7bx,2bx/4bx,{4}4bx/8bx,{16}3x,7,3x,7,2x,6,2x,6,1<1x[4:1]b,5,1x,5,1bx,,,,{32}D1,D8,D7,D6,D5,D4,D3,D2,{64}A1,D1/E1,A8,D8/E8,A7,D7/E7,A6,D6/E6,A5,D5/E5,A4,D4/E4,A3,D3/A3,A2,D2/E2,{4}A1f,
{16}7x,5,6,3x,4,2,7x,8,6x,2,{32}8bx,7x,6x,5x,{16}2x,4,3,6x,5,7,2x,1,3x,7,{32}1bx,2x,3x,4x,{16}7x,5,6,2,4x,3,8,1,{24}8bx,7x,6x,5bx/1bx,2x,3x,8bv6<8x[4:1]/4bv2>4x[4:1],,,,,,,,,,,,,,,
{8},1b-5x[8:1],5-3-8[16:3],1,8,7-4[8:1],6,7b-1x[8:1],,7bx/2bx,,
2bx-6[8:1],8-4[8:1],2<4[4:1],8,2,,8bx-4[8:1],,8bx,,
2b-5x[8:1],5-3-8[8:1],2,8-4[8:1],{16}7,6,5,,5b-1x[8:1],6x,7x,,5b-3x[8:1]/8x,,8,,5bx/8bx,,,,
{8}8-4[8:1],4-8[8:1],8<3<7[8:3]b,2-6-2x[4:1],2,,,,
{16}1h[8:1]/8h[8:1],,,4h[8:1]/7h[8:1],,,2h/6h,,2-4[8:1]/6-4[8:1],3h/5h,4-8-2[16:3]*-8-6[16:3],,,,,,,,,,
{16}1h[8:1]/7h[8:1],,,3h[8:1]/5h[8:1],,,4h/8h,,4v2[8:1]/8v6[8:1],3h/7h,2-4-6[16:3]/6-8-2[16:3],,,,,,,,,,
{16}1h[8:1]/5h[8:1],,,4h[8:1]/7h[8:1],,,2h/6h,,2v4[8:1]/6v4[8:1],3h/5h,4-8<6[16:3]*-8>2[16:3],,,,,,,,,,
{16}2h[16:3],,,8,4/8,,1,,3>1[8:1]/5-1[8:1],,1,,3b-7x[8:1]/5b<7x[8:1],,,,3bx/5bx,,,,
{16}8h[8:1]/4h[8:1],,,5h[8:1]/2h[8:1],,,7h/3h,,7-5b[8:1]/3-5[8:1],6h/4h,5-1-7b[16:3]*-1-3[16:3],,,,,,,,,,
{16}8h[8:1]/2h[8:1],,,6h[8:1]/4h[8:1],,,5h/1h,,5v7b[8:1]/1v3[8:1],6h/2h,7-5-3<7b[8:3]/3-1-7>3[8:3],,,,,,,,,,,,,,
{16}1h[8:1]/6h[8:1],,,4h[8:1]/7h[8:1],,,2h/6h,,2v4b[8:1]/6v8[8:1],3h/7h,4>1v3>8b[8:3]/8<5v7<4[8:3],,,,,,,,,,,,,,
{16}1bhx[8:1],,4x,3,4x,3,8bhx[8:1],,5x,6,5x,6,1bhx[8:1],,4x,3,8bx,1,5x,4,7bx,8,6x,5,7qq5<1[4:2],,,,,,,,3,,,,2qq8>4[4:2],,,,,,,,6h[8:1],,,,C,,,,
E
