&title=Lucifer
&artist=Chitose
&first=0
&des=D&K
&lv_5=12+
&inote_5=(165)
{1}
,
{8}
,,,,,,,,,,,,{32},,,,,1s5[32:35]*s5[32:35],,,,,,,,,,,
{1}
,8<1[4:8],,8h[4:7],
{8}
,,,,,,,,
8bp5[4:5]/4b,,,,3h[4:1],,,,2h[4:1],,,,1h[4:1],,,,
8pp3[4:5]/4,,,,5h[4:1],,,,6h[4:1],,,,7h[4:1],,,,
8qq4[4:5]/4h[4:1],,,,3h[4:1],,,,2h[4:1],,,,1h[4:1],,,,8q6[4:2]/4q2[4:2],,,,,,,,
{16}
54,,,45,,,45,,6h[4:1]/3h[4:1],,,,,,,,7/5h[4:1],,,,4-1[8:1],,,,43,,,,82,,,,
2/4h[4:1],,,,5-8[8:1],,,,5/6,,,,71,,,,
2,,4,3,,6,5,,8-4[8:1],,,,8/7,,,,
7,,5,6,,3,4,,1s5[8:1]*-5[8:1],,,,1,,,,6,,6,,7/5,,8,,3,,3,,4/2,,1,,
7<4[8:1],,7,,8-4[8:1],,8,,1-5[8:1],,1,,2>5[8:1],,2,,7b,,7,,
6/8p4[8:1],,,,2b,,2,,3/1q5[8:1],,,,7b,,8,,1,,28,,3,7,3,7,{24}4,6,4,6,4,6,
{16}5qq8[16:6]*pp2[16:6],,,,,,,,,,,,1b/7b,,,,
3,,4,,25,,4,,3,,4,,25,,3,,45,,6,,74,,5,,6,,5,,74,,6,,3/5,,2,,14,,2,,
6,,7,,85,,7,,7/4,,6/3,,5<8[8:1]/2,,1,,8-4[8:1],,,,,,,,
2/6,,2,,17,,2,,3/6,,3,,46,,3,,2/7,,7,,82,,7,,6/3,,6,,53,,6,,
5,,3/4,,2/4,,1/4,,8,,8/7,,86,,8/5,,8b/4b,,5b-1[8:1]/1b-5[8:1],,,,,,,,,,37,,
4,4,5<8[8:1],,,,5,,3,,2/1p5[8:1],,,,1,,2,3,4-1[8:1],,,5,4,,6,,
7-4[8:1]/8-4[8:1],,,,7>4[16:3]/8,,,,2h[8:3],,,,,,5,4>1[8:1],7h[4:1],,,,,,
7,8,6-1[8:1],,,5,6,,4,,7-4[8:1]/3-8[8:1],,,,7<2[4:1]/3,,,,7,,,,
7,,6,,8q4[16:2]/5h[4:1],,,,8,,6,7,8-4[8:1],,,5,8,,3,,1-7[8:1]/2-6[8:1],,,,
1q2[2:1]/2>1[8:4],,,,1b/2b,,,,,,,,,,4,,3>8[8:1]/5,,,,
7<4[8:1]/3b,,,5,7,,8,,26,,15,,8q5[8:1]/4q1[8:1],,,,
4b/8b>7[8:3],,,,,,,,,,,,1-3[8:1],,8,,7h[4:1]/1,,,,
5-2[8:1],,6,,7h[4:1]/5,,,,1,,5,,2/6,,3,,7,,5>2[8:1],6,5,,
7,,6,,5<8[8:1],4,5,,3,,4,,5,7,5>2[8:1],,1<6[8:1],,5,,1,,
2bq5[8:4],,,,,,,,,,,,,,,,7h[8:1]/4,,4,,3h[8:1]/6,,6,,2/5h[8:1],,2,,
1h[8:1]/4,,4,,8-3[8:1]/3-7[8:1],,,,8/3,,,,1-6[8:1]/5-2[8:1],,,,1/5,,,,
8>3[8:1]/4<7[8:1],,,,8v5[8:1]/4v1[8:1],,,,4/8,,,,
{24}
2,3,4,8,7,6,
{16}1/5-1[8:1],,,,5b/6b,,,,4,,5,4,,3,4,3,
5-8[8:1],,,,5/6-3[8:1],,,,1,,,2,2,,3,,
3-1[8:1]/4,,,5,3,,4,,4-6[8:1],,,1,4,,2,,
3-1[8:1],,,5,3,,4,,7^4[8:1]/2,,,,{24}3,2,1,{16}8,,
6h[8:3]/2,,,,,,4,4,5,,4,5,,6,5,6,
4-1[8:1],,,,4/3-6[8:1],,,,8,,,7,7,,6,,
6-8[8:1]/5,,,4,6,,5,,5-3[8:1],,,8,5,,6,,
2-5[8:1]/7-4[8:1],,,,,,,,3h[8:1]/1h[8:1],,,6h[8:1]/8h[8:1],,,27,,
2bqq5[1:2]/7bpp4[1:2],,,,,,,,,,,,,,,,
,,,,,,,,,,,,,,,,
,,,,,,,,,,,,,,,,
4w8[2:1],,,,,,,,,,,,,,,,
2-5[8:1],,3,,2/1h[8:1],,,,7-2[8:1],,6,,7/8h[8:1],,,,
4-7[8:1],,5,,4/3h[8:1],,,,1-5[8:1],,8,,1/2h[8:1],,,,
3,4,2,3,1,4,2,5,3,6,4,7,5,8,4,7,
3,6,2,5,1,4,8,3,{24}7,8,1,2,3,4,{32}8,7,6,5,4,3,2,1,
{16}
8b,,,,,,,,4-8[8:1],5,36,,,,,,
6-1[8:1]/1,,,8,6-4[8:1],,2,,6/3-7[8:1],,,1,3-1[8:1],,2,,3/8-4[8:1],,,7,
8,,1b,,,,3/4,,5/6,,7/8,,
2>5[8:1]/1h[8:1],,,8h[8:1],2,,7h[8:1],,5-1[8:1],6h[8:1],,,5,,7,,
1,8,2,8,1,,6,5,7h[8:1]/4h[8:1],,,3h[8:1]/6h[8:1],,,2/5,,
1-5[16:1],,,7-3[16:1],,,4b-8[16:1],,,,,,6,6,1,8,
3-8[8:1],,,1,3-5[8:1],,7,,3/6-2[8:1],,,8,6>1[6:1],,7,,6/1bpp4[8:3]*qq6[8:3],,,,
,,,,,,,,5,5,3,4,2,1,2,1,3,8,3,8,4,7,5,6,{32}4,3,2,1,8,7,6,5,
{16}4b>1[8:1],,,,4/5,,,,4-1[8:1],,,,4/2,,,,4h[8:3],,,2,,,6,,5h[8:3],,,7,,,3,,
4/5<8[8:1],,,,4/5,,,,5qq3[8:1],,,,8/5,,,,6h[8:3],,,5,,,1q5[8:1],,2>7[6:1],,1,,2,,,,
8b-3[8:1],,1,,7/8,,6,,5V37[6:1],4,5,,3,,2,,1-6[8:1],,8,,2/1,,3,,4,5,4V62[6:1],,
6,,7,,{24}8-4[8:1],7,6,5,1,2,3,,,,,,1-5[8:1],2,3,4,8,7,6,,,,,,
{24}
7,6,5,3,2,1,4,5,6,8,1,2,7,6,5,{32}3,2,1,8,7,8,1,2,3,4,5,6,
{1}7bV53[8:18]/8b<1[1:3],,,,
{16}
,,6,,,5,,,4,,,3,,,2<4[1:2],,,,
