&title=Introspect
&artist=Lokan
&first=0
&des=Impliciter
&lv_5=13+
&inote_5=(140)
{1},,
{16}46,,,35,,,24,,,18,,,4>2[8:1]/7,,56,,
{1}4V68-3v1>2[2:3]/5h[32:37],
{4},,,{16},,8,7,
{16}6,53,,,64,,,75,,,86,,,17,,,
{1}8-2-6<7-3-5[2:3]/2h[1:1],
{1},
{8}3h[8:7],,,,,,,8,
{16},,7,,,6,,,2,,,3,,,4,,
{8}5h[8:7],,,1,,,,1,
{16},,2,,,3,,,7,,,6,,,5,,
{16}1x,2x,3x,4x,
(142)
{16}6/5h[8:3],,,8,,,6h[8:7],,,8,,,5<3[2:1],,,,
{8},,,,E8/B7,2,E4/B3,6,
{16}3h[8:3],,,1,,,4h[8:3],,,1,,,5h[8:3],,,8,
{16},,6h[8:3],,,8,,,{24}1x,2x,3x,5x,6x,7x,
(143)
{16}1h[8:3],,,2,,,3h[8:3],,,4,,,5h[8:3],,,6,
{16},,7h[16:5],,,8,,1,,6/2h[16:3],,,4,,5,,
(144)
{16}6/1-7[12:1],,,2,,,3-1[12:1],,,4,,,5-3[12:1],,,6,
{16},,7-5[12:1],,,7/8,,,1pp3[8:1],,,1/6,,,8qq7[16:3],,
{16},8/2,,,1pp1[16:3],,,1/8,,,7-4[12:1],,,7/8,,,
{16}A2/B2/E2/E3,,,A6/B6/E6/E7,,,A3/D4/E4/B3/B4,,,A8/B7/D8/E1/E8/B8,,,2b,4b,,4b,
(145)
{16}3bh[16:3],,,5,3,,84,,,7,5,6,1,,6,5,
{16}7h[16:3],,,5,7,,16,,,2,4,3,8,,3,7,
{16}5h[16:3],,,6,5,,83,,,7,2,4,1,,6,5,
{16}6,,3,4,1,,78,78,,6,5,7,4>1[8:1],8,2,6,
{16}45,,,7-4[8:1],,,71,,,2,2,6,6-1[8:1],,5,,
{16}46,,,2v5[8:1],,,82,,,7,7,3,3>8[8:1],,6,,
{16}53,,,7-2[8:1],,,47,,3x-8[8:1],,4x-7[8:1],,3,,4,,
{32}1,2,3,,,,7,6,5,,,,2,3,4,5,,,8,7,6,5,,,2,3,4,5,6,7,8,1,
{16}62,,{24}E7,B6,B5,{16}3,3,,2/4pp1[2:1],,53,,7<2[4:1]b/4,,,,,
{16},,,,,8,1,7,{24}B1,C,B5,{16}6,6,,4,5,4,
{16}37,,{24}E3,B3,B4,{16}6,6,,4,5,3,,62,,73,,8/4b,
{16},7,7,2b,5,5,1b,6,6,8b,5,5,{28}7b,8,1,2,7,6,5,
{16}4,,{24}E3,B3,B4,{16}6,6,,7/5q8[2:1],,46,,1>7[4:1]b/5,,,,,
{16},,,,,1,8,2,{24}B8,C,B4,{16}3,3,,5,4,5,
{16}6/2,,{24}E7,B6,B5,{16}3,3,,5,4,6,,37,,26,,1/5b,
{16},2,2,7b,4,4,8b,3,3,1b,4,4,{24}2b,1,8,7,6,5,
{24}4/A2,E3,B3,B4,B5,B6,B7,B8,B1,B2,B3,B4,E5f,{48}5hx[32:7],,,,,,,
(127)
{48}E6,B5,B4,E4,,,{4},,,{24},E2,D2,
{16},,,B7,,,C,,,B3,,,E6,,E5,,
{48}A6,D7,A7,D8,,,{4},,,{24},E3,B3,
{4}B4,,{16},,,B6/A6,,,A7/E8,,
{48}D3,A3,D4,,,,{8},,,,B4/E5,,D8/E8,
{16},,,B2,,,C,,,B6,,,B3/B4,,,{32}E6,A6,
{8}4hx[18:29],,,,,3,,3,
{8},C,,,{18},,8,7,6,5,2,3,4,
(143)
{4}8-4[8:1]/5,8/5-1[8:1],{16}8/5x,,,7,,7,,,
{4}3-6[8:1]/5,3/5-8[8:1],{16}3/5x,,,1,,,1,,
{4}8-3[8:1]/2,8/2-5[8:1],{16}8/2x,,,1,,1,,,
{4}2-7[8:1]/4,2/4-1[8:1],{16}2/4x,,3,,,,3x,,
{4}2-6[8:1]/8-6[8:1],2/8-4[8:1],{16}8x/2,,,1,,1,,,
{4}2-4[12:1]/6-8[12:1],2-6[8:1]/6,{16}2x/6,,8,8x,,,8,,
{16}1h[4:1]/6h[4:1],,,,,,3,4,,3,4,,2,1,2,1,
{16}2,,38,,47,,6,5,,6,5,,7,8,7,8,
(144)
{16}7,1,6,,3,4,,6,5,,7,8,,2,1,,
(145)
{16}A7/B7/E8/E7,,,A3/B3/E4/E3,,,A6/D6/E6/B6/B5,,,A1/B2/D2/E1/E2/B1,,,7h,5h,,5h,
{8}6h[8:3],5,,5h[8:3],6pp5[4:1],,6,,
{8}3h[8:3],4,,4h[8:3],3,,{16}3bx,4bx,,6bx,
{16}5bx,,{24}E7,B6,B5,{16}3,3,,5,4,6,,37,,26,,1b/5,
{16},3,4,2b,6,5,7b,3,4,1b,6,5,{28}8b,7,6,5,8,1,2,
{16}3,,{24}E7,B6,B5,{16}3,3,,2/4pp1[2:1],,53,,8<2[4:1]b/4,,,,,
{16},,,,,8,1,7,{24}B1,C,B5,{16}6,6,,4,5,4,
{16}37,,{24}E3,B3,B4,{16}6,6,,4,5,3,,62,,73,,8b/4,
{16},6,5,8b,3,4,1b,6,5,8b,3,4,{24}1b,8,7,6,5,4,
{16}Cf/3,,2,2-5-3-8[16:5],,35,,26,{8},7w3[8:1],7,7,
{16},,6,6-2-8-5[16:5],,18,,36,{8},4w8[8:1],4,4,
{16},,2,2,4,4,1,1,7,7,5,5,6,6,3,3,
{32}8,7,6,5,4h[8:1],,1,,,,,,8,7,6,5,4h[8:1],,{16}8,,,B3/E3,B7/E7,B1/E1,B5/E5,
{16}Cf,,7,7-3-5-1[16:5],,46,,37,{8},2w6[8:1],2,2,
{16},,3,3-6-4-1[16:5],,81,,36,{8},8w4[8:1],8,8,
{16},,7,7,5,5,1,1,3,3,5,5,8,8,7,7,
{32}1,2,3,4,5h[8:1],,8,,,,,,1,2,3,4,{16}5h[8:1],1x,1x,,8bx,2bx,,2bx,
{32}8,7,6,5,4h[8:1],,1,,,,,,8,7,6,5,{16}4h[8:1],8x,8x,,7bx,1bx,,1bx,
{24}A6,E6,B5,B4,B3,B2,B1,B8,B7,B6f,B5,E5,{8}4hx[24:5],
{48}3bx-1s5-7[8:25],E4,B4,B5,E6,
