&title=Äventyr (Seirḗn Mix) - JP Ver.
&artist=Sera Amagi prod. Yuukineko
&first=0
&des=おにねこ
&lv_5=13
&inote_5=(132)
{1}
,,,
{4}
,,,
{8},54,
3<6[8:2]/6,,,,8h[8:4],,,,6>3[8:2],,,,1h[8:4],,,,
{16}3<6[8:2],,,2,,,2,,{8}1-4[16:3],,,,
{16}6>3[8:2],,,7,,,7,,{8}8-5[16:3],,,,
{16}
2q7[16:3],,6,6>3[16:3],,,,,,,,,1,6,4,5,
3h[8:4],,,,7z3[8:3],,,,,,,,,,,,
2>5[32:5],,6,6<1[32:5],,,,,,,,,8,3,5,4,
6h[8:2],,,,1p4[16:3],,,,5p8[16:3],,,,,,,,
3<6[8:1],,,,36,,7p3[8:1],,,,73,,2<7[8:1],,,,
72,,6,,6-1[8:1],,,,1/6,,,2,2>5[8:1],,1,,2/8qq8[16:4],,,,
3b,,1,,1pp1[16:4],,,,,,,,7,,86,,31,,4,,7/5,,,8,4p8[8:1]/8p4[8:1],,,,
{16}4b/8b>3[8:1],,,,5,,,,7,5,6,,,,2,1,3h[8:2],,4,,6h[8:2],,5,,3,4,2,,
8p4[8:1],,3,,4<7[8:1],,,,1,,,,2,4,3,,,,7,8,6,,3,3,5,4,6,,7/5p4[8:2],,,,,,,,
{8}
6<3[16:7]*pp5[16:9],,,,,,,4,4qq5[16:8],,,,6h[8:4],,,,
1>4[16:3],,,,8q5[16:3],,,,1p4[16:3],,5<4[16:6],,,,,,
{16}
3h[16:3]/6b,,,4h[16:3],,,5,6,5>3[32:3],,7,,7,,,,
6h[16:3],,,5h[16:3],,,4,3,4<6[32:3],,,,2,,,,
2h[16:3],,,4h[16:3],,,5,7,5>2[8:1],,8,,8,,,,
7h[16:3],,,5,5,,4<7[8:1],,2q4[16:4],,4,,2,,,,8b,,
{16}7,,6-3[8:1],,3,,6,,,2,2-5[8:1],,5,,2,,8,,7pp5[16:5],,5,5,7,,,,3,,2,,
51,,2,,3-6[8:1],,6,,3,,,7,7-4[8:1],,4,,7,,2,2,5h[16:2],,4,4,7,,1,1,1,,8,,
17,,62,,3/5q3[8:2],,4,,3p5[8:2],,,,,,,,4,,3-8[16:2],,8,8V25[16:5],3V15[16:4],,,,,,,,,,6>3[32:4],,
57,,2<7[8:1],,1,,2qq7[8:3],,,,,,,,,,6,,4,4,5,,3<6[8:1]/4,,,,7<2[16:9],,7,,,,,,,,,,,,,,
{8}
1-5[8:1],8,6<1[8:1]/1>4[8:1],,,,4-8[8:1],3,1>4[8:1]/4<7[8:1],,,,
8q4[8:1],1,3>8[8:1]/8<5[8:1],,,,5q1[8:1],6,8<5[8:1]/5>2[8:1],,,,
1q5[8:1],,5<3[8:2]/1,,,,5q1[8:1],6,1>7[8:2]/5,,,,
4p7[8:1],3,7<1[8:2]/4,,,,8p3[8:1],7,3>5[8:2]/8,,,,
{16}
3h[8:1],,4h[8:1],,2h[8:1],,8,1,7h[8:2],,2,,2,1,3,,8,,4b-1[8:1],4b,4b,,4b,,
6h[8:1],,8h[8:1],,7h[8:1],,5,6,4,,3,,2h[8:1],,4,3,5,,5b-8[8:1],,5b,,5b,,
2h[8:1],,1h[8:1],,8h[8:1],,6,6,5,,7,,25,,3,3,4,,2,,74,,5,,6pp3[16:5],,4,4,6,,,,
2h[8:2],,,,1,,83,,7,6,5,4,6,5,4,3,5,4,3,2,1b,,,3b/4,,,6b/5,,8b,,,,6>3[32:4],,,,
{4}3V14[16:9]*pp4[16:9],,,,
{8}5h[4:2],,,,4h[4:1],,6h[8:2],,
{32}
1,2,3h[16:7],,,,,,,,,,,,,,7,6,5h[16:7],,,,,,,,,,,,,,
2,3,4h[16:5],,,,,,,,,,5,,4,,{32}8,7,6,,,,,,
{16}
1-4[8:1]/8-5[8:1],,,,18,,,,,,3,4,2h[8:2]/5,,,,
1q1[8:2],,,,7/1,,,,,,6,5,7h[8:2]/4,,,,
8z4[32:9],,,,38,,,,,,2pp3[32:8],1qq8[32:6],2,,,,,,,,
7p4[16:6]/4,,,,,,3,3,3,,,2,,,18,,{24}6q5[16:4],5,6,
{8},,,1h[8:2],,4h[8:2],,{24}3,2,1,8,7,6,3,2,1,8,7,6,
{16}1b/5b>7[16:4],,,,,,,,
4h[16:4],,,,5h[16:4],,,,3qq4[16:6],,,,,,,,6h[16:3],,,,6,,3,,5h[8:2],,,,4h[8:2],,,,
6,,,4,4,,3,,5,,2,2,4,,7,7,5,,6,6,4,,5,5,3h[8:2],,,,8-4[8:1],,,,
{8}1b/8b<3[8:2],,3<8[8:2],,8pp6[16:6],1,2,,4,3,
5,6,5/7<5[32:3],,1>3[32:3],,{16}4z8[32:10],,5,5,4,,,,,,,,
{8}1-5[8:1],8,7/1>6[8:2],,6>1[8:2],,1qq4[16:6],8,7,,5,6,
4,3,4/2qq8[32:4],,7pp1[32:4],,{16}4pp7[16:6],,3,3,4,,,,,,,,
21,,87,,3<5[32:3]/6p2[32:3],,,3/6,,,,,8/1q5[8:1],,,,1b,,
6<1[8:1],,4,4,6,,3,,24,,
65,,7,8,,2,1,,8/3<6[32:4],,,,3b,,7,,2,1,3,,65,,74,,
2,1,,7,8,,61,,3,4,2V48[32:7],,4,,2,,,,7h[8:1],,4,5,3,,
24,,6,65,,3,34,,
5>2[8:1]/2,,6,6,5,,8,8,1,,28,,7<4[32:4]/3,,4,,
7b,,1,1>4[8:1],,4<7[8:1],4,,8p4[8:1],,1,,
8,,3>8[8:1],3,,,{24}7,6,5,{16}4q8[8:1],,1,,
4,,1,1>4[8:1],,4<7[8:1],4,,8p4[8:1],,1,,
8,,2,2,4,,7,7,5>2[8:1],,6,,
57,,8,8<5[8:1],,5>2[8:1],5,,1q5[8:1],,8,,
1,,6<8[32:2]*<1[32:3]*<2[32:4]*<3[32:5],6,,,{24}3,4,5,{16}6,,,,
81,,3,24,,5,64,,7,8,1h[8:1]/6,,
7,5,6,2,4,3,8,5,6,1,4,3,
{16}8b<5[12:1],,,8bp4[12:1],,,8bv3[12:1],,,8bqq2[16:16],,,,,
{8},,,,,,,,,
{4}5h[4:2],3,4h[4:2],2,3>6[8:4],,,,
1h[4:2],7,8h[4:2],6,7h[4:2],5,6h[24:16],,
{24},,,,5<4[24:38],4,3qq5[8:12],,,
