&title=OIIAOIIA
&artist=Hasancan
&first=1.85
&des=Bzz
&wholebpm=150
&lv_5=OI
&inote_5=(150){16}
1h[8:2],,8,8,,,1,8,
1,8,8,8,1h[16:2],,8,,
,,,,,,,,
,,,,
(110)
1h[8:2],,8,8,,,1,8,
1,8,8,8,1h[16:2],,8,,
,,,,,,
(150)
1hb[16:3],,8,,8,,1,8,
1h[16:6],,8,,8,,,,
8hb[16:3],,1,,1,,8,1,
8h[16:6],,1,,1,,,,
1b/8b,,1,,8h[4:1],,1,1,
,,8,,1h[16:2],,8,,
1b/8b,,8,,1h[4:1],,8,8,
,,1,,8h[16:2],,1,,
1hb[16:3],,8,,8,,1,8,
1h[16:4],8,8,8,,,1,1,
8hb[16:3],,1,,1,,8,1,
8h[16:4],1,1,1,,,8,8,
1b/8b,,1,1,8h[4:1],,1,1,
,8,8,8,1h[16:2],,8,1,
1b/8b,,8,8,1h[4:1],,8,8,
,1,1,1,8h[16:2],,1,8,
1bh[8:1],,8,8h[8:1],,1,1,8,
1,8<6[8:1],8,8,1h[16:2],,,1,
8bh[8:1],,1bh[8:1],,8,8,1,8,
1h[8:1],,8,1,8h[8:1],1,1,,
8bh[16:5],,1,1,,,1,1,
,8<6[8:1],8,8,8,,1,1,
1bh[8:1],,8bh[8:1],,,1,8,1,
1b,1b,1b,1b,1bx,1bx,1bx,1bx,
8bh[8:1],,1,1h[8:1],,8,8,1,
8,1>3[8:1],1,1,8h[16:2],,,8,
1bh[8:1],,8bh[8:1],,1,1,8,1,
8h[8:1],,1,8,1h[8:1],8,8,,
1bh[16:5],,8,8,,,8,8,
,1>3[8:1],1,1,1,,8,8,
1,1,8,1,,8,8,1,
8,8,1,8,1b/8b,,,,
(150){160},
{16}
1b,1,1,1,1,1,1,1,
1b,1,1,1,1,1,1,1,
1b,1,1,1,1b,1,1,1,
1b-4[8:1],1,1,1,1bx,,,,
8b,8,8,8,8,8,8,8,
8b,8,8,8,8,8,8,8,
8b,8,8,8,8b,8,8,8,
8b-5[8:1],8,8,8,8bx,,,,
1,8h[16:2],,1,8h[16:2],,1,,
,8,8h[16:2],,1,1,8,1,
8h[16:2],,1,1/8h[16:1],,1,8h[16:1],1h[16:2],
,8,8,8h[16:1],1b,,,,
1,1,8,1,8,8h[16:2],1h[16:1],,
1,1,1h[16:2]/8,,8,8,1h[16:1]/8h[16:1],,
{1}1bq4[16:9]/8-5b[16:5],
{12}
1bh[12:3],,8h,8h[12:3],,1h,
1h[12:3],,8h,8h,1h,8h,
1h[12:2],,8h[12:1],1h[12:2],,8h[12:1],
{24}
1h,,1h[12:1],,8h,,1h/8h,,8h,1h,8h,,
{12}
1bh[12:2],,8h[12:3],1h[12:2],,,
8h,8h,1h[12:3],8h[12:2],,,
1h[12:2],,8h[12:2],1h,1h,1h[12:2],
8h,8h[12:1],1h,8h,,,
{12}
8bh[12:3],,1h,1h[12:3],,8h,
8h[12:3],,1h,1h,8h,1h,
8h[12:2],,1h[12:1],8h[12:2],,1h[12:1],
{24}
8h,,8h[12:1],,1h,,1h/8h,,1h,8h,1h,,
{12}
8bh[12:2],,1h[12:3],8h[12:2],,,
1h,1h,8h[12:3],1h[12:2],,,
8h[12:2],1h,1h[12:2],8h,8h,8h[12:2],
1h,1h[12:1],8h,1h,,,
(148.5){16}
1bh[16:4],,8,8,8,,1,1,
1h[4:1],8h[16:1],,8,,1,1,1,
8bh[16:4],,1,1,1h[16:4],,8,8,
,8,8,1,8h[16:1],,1h[16:1],,
1bh[16:3]/8h[16:2],,,,8,,1,8,
1,8,8,8,8/1,1,1,1,
8h[16:4]/1b,,1,1,1h[16:2],,,1,
8,8,8,8,8b/1bx,8bx/1b,8b/1bx,8bx/1b,
8bh[16:4],,1,1,1,,8,8,
8h[4:1],1h[16:1],,1,,8,8,8,
1bh[16:4],,8,8,8h[16:4],,1,1,
,1,1,8,1h[16:1],,8h[16:1],,
8bh[16:3]/1h[16:2],,,,1,,8,1,
8,1,1,1,8/1,8,8,8,
1bh[32:1]/8b,
E
