&title=Drivessover
&artist=Taishi
&first=-1.036
&des=flawi
&lv_5=14
&des_5=flawi
&inote_5=
(182){4},,,,5/4h[4:7],
5,5,5,
5,5,5,5,
4-1[4:5],4,4,4,
4,4,4,D2/E2,
8/1h[4:7],8,8,8,
8,8,8,8,
8<5[4:5],8,8,8,
8,8,8,C,
7x/4x,{8}6,5,7h[4:1],E6,{4}E5,
5/2,{8}3,4,2h[4:1],E4,{4}E5,
7/1,{8}2,2,8h[4:1],D3,{4}D4,
2/8,{8}7,7,1h[4:1],D7,{4}5,
{8}1h[8:1],5,1h[8:1],5,1h[8:1],5,1h[8:1],5,
1h[8:1],5,2h[8:1],5,3h[8:1],6,4h[8:1],7,
{16}5x,6x,7x,8x,1x,2x,3x,4x,5x,6x,7x,8x,1x,2x,3x,4x,
E8,B7,B6,E6,E3,B3,B4,E5,{2}1bw5b[8:1],
{4}7x/4x,{8}8,8,{4}5h[4:1],{8}7,4/6h[4:1],
,3,3-7[8:1],7-3[8:1],,,,,{4}5/2,
{8}1,1,{4}4h[4:1],{8}2,5/3h[4:1],
,7,{4}7/3,{16}8-4[8:1],4,{8}8,,,{4}3/5h[4:1],
{8}2,2,{4}1/4h[4:1],{8}2,5/2h[4:1],
,6,3/7-3[8:1],7/3-7[8:1],,,,,{4}6/4h[4:1],
{8}7,7,{4}8/5h[4:1],{8}7,4/7h[4:1],
,3,2,1,{16}A7,D7,A6,D6,A1,D2,A2,D3,
{4}5xh[2:1],{8}4-1[8:1],3,{4}4,{8}8V63[4:1],8,
3V58[4:1],3,2,2,1-5[8:1],1,,,{4}6x/4xh[2:1],
{8}6-1[8:1],5,{4}6,{8}8/2,2,
7V51[4:1],7,2,2,3-6[8:1],3/8,,,{4}7/5h[2:1],
{8}8-5[8:1],1,{4}8,{8}3-8[8:1],3,
6-1[8:1],6,2>5[8:1],2,{16}8x,7x,{8}6x,,,{4}1/5h[2:1],
{8}2-5[8:1],1,{4}2,{8}7/4,7,
{16}8,5,{8}8,{16}4,1,{8}4,{32}D4,A3,D3,A2,D2,A1,D1,A8,{4}Cf,
{8}6x/8x,8,{16}7h[16:3],,,1h[16:3],,,{8}8,{16}2/8h[16:3],,,3h[16:3],
,,{8}1,{16}3/1h[16:3],,,4h[16:3],,,{8}8,7,6,
5x/3x,5,{16}4h[16:3],,,6h[16:3],,,{8}5,{16}7/5h[16:3],,,8h[16:3],
,,{8}6,{16}8/6h[16:3],,,7h[16:3],,,{8}5,8,7/4,
8x/3x,8,7h[16:3],{16}1,1h[16:3],,,{8}8,2/8h[16:3],{16}3,3h[16:3],
,,{8}1,3/1h[16:3],{16}4,4h[16:3],,,{8}8,7/3,6/2,
5x/3x,5,4h[16:3],{16}6,6h[16:3],,,{8}5,7/5h[16:3],{16}8,8h[16:3],
,,{8}6,8/6h[16:3],{16}7,7h[16:3],,,{8}5,{48}E8/E5h[16:0],B7,{24}B6,,,,,{4}3x-8-4-2[8:3],
{8}5,6,{4}7,{8}8<3[4:1],8/1h[4:1],
,,{4}1,2-5[8:1]*-4[8:1],2,
{8}7,7h[4:1],6,5,4,4h[4:1],5,6h[8:7],
,E1,E8,E7,{4}E6/B5/A5,C,
6-1-7-4[8:3],{8}6/4,3,{4}2,{8}2-5-8[4:1],2h[8:3],
,,,,{4}1-7[8:1]*-3[8:1],1,
{8}6,6h[4:1],8,8h[4:1],4,4h[4:1],2,2h[4:1],
{16}E5,E6,E7,E8,E1,E2,E3,E4,E5,E6,E7,E8,E1,E2,E3,E4,
{2}1xh[2:1],{4}8-4b[8:1],8/2,
7b-4[8:1]/3b-8[8:1],7/3,{8}1-5[8:1],5V38[4:1],1,7-3[8:1],
,7,,8,{4}4-8[8:1]/1-4[8:1],4/1,
7-2[8:1]/3-6[8:1],7/3,{8}8-3[8:1],3V51[4:1],8,2-6[8:1],
,2,,8,{16}7h[8:1]/5h[8:1],,,6h[8:1]/4h[8:1],,,{8}5/3,
{2}3h[2:1]/5b>7[4:1],{24}A7,D7,A6,D6,A5,D5,{8}2x,{16}1,1h[16:5],
{2}4b>6[4:1],{24}A6,D6,A5,D5,A4,D4,{8}1x,{16}2,2,
{8}6x-8[8:1],3,6/2,3xh[16:1],5x-8[8:1],6,5/2,1xh[16:1],
4x-8[8:1],5,4/2,1,{4}2w6[8:1],2,
8b<5[8:1]/4b>1[8:1],8/4,{8}2v5[8:1],5V38[4:1],2,7-4[8:1],
,7,1,2,{4}5-1[8:1]/3-1[8:1],5/3,
8<5[8:1]/2>5[8:1],8/2,{8}6-1[8:1],1V75[4:1],6,3-7[8:1],
,3,4,5,{16}6h[8:1]/8h[8:1],,,7h[8:1]/1h[8:1],,,{8}8/2,
{4}8b/2b>5p1-6[2:1],{8}7,7,7,7,{4}7,
8<5q1q6[2:1],{8}4,4,4,4,{4}4,
{16}3b,8,3,8,2,7,2,7,1,6,1,6,1,5,1,5,
1x,2x,3x,4x,8x,7x,6x,5x,{32}E2,E3,E4,E5,E6,E7,E8,E1,E2,E3,E4,E5,E6,E7,E8,E1,
{4}E2/Cf,{8}5/2,{16}2,4,3-8[8:1],,,5,{8}3,6,
{16}7h[8:1]/1h[8:1],,,6h[8:1]/2h[8:1],,,{8}5/3,4/2h[4:1],{32}A5,D6,A6,D7,{8}A7,1x,
8/2,{16}3,4,6,7,2,3,5,6,1,2,5,6,1,2,
5,6,7,8,5,4,3,2,7x/1x,,,6x/4x,,,{8}8x/2x,
7bx/3bx,{16}6,4h[16:3],{8}7,7,{24}A3,D3,A2,5/D2,{48},,,,{16}4,1,4,1,
{8}4b,{16}2,5h[16:3],{8}3,3,{24}D7,A7,D8,4/A8,{48},,,,{16}3,1,3,1,
4b,8,4,7,{24}3x,2x,1x,6x,{48},,,,{16}5b,1,5,2,{24}6x,7x,8x,4x,{48},,,,{16}3xh[8:1],
,,8xh[8:1]/4xh[8:1],,,{8}7x/5x,{12}7x,5x,8x,{96}3x,,,2x,,,{32}1x,8x,7x,6x,5x,4x,
{4}3x/Cf,{8}5x/2x,{16}6,6,2,3,4,5,8,7,6,5,
{8}1,1x/5x,{16}2,3,4,5,1,8,7,6,1,2,3,4,
8,7,6,5,8,1,2,3,6,7,8,1,5,4,3,2,
7xh[8:1]/1xh[8:1],,,8xh[8:1]/2xh[8:1],,,{8}7x/3x,{4}6x<1[8:1]/4x>1[8:1],6bx/4bx,
{12}8,8,3,7,7,2,{4}6/1-5[8:1],{8}5/1,6,
7-3[8:1],1-5[8:1],7>6[4:1],1,{4}7,{8}2,1/7,
{16}2,3,6,7,1,2,5,6,2,3,7,8,3,4,6,7,
3,8,3,8,2,1,2,1,{64}D3,A3,D4,A4,D5,A5,D6,A6,D7,A7,D8,A8,D1,A1,D2,A2,{4}D3/Cf,
4x/7xh[2:1],{8}5>2[8:1],5,{4}5,{8}8-3[8:1],3-8[8:1],
8-6-1-5[8:3],4,4,3,2-6[8:1],2,,,{4}7/4h[2:1],
{8}7<4[8:1],8,{4}7,{8}3,3,
{16}2,4,{8}2,{16}5,3,{8}5,1-4b[8:1]/6-1b[8:1],6/1,,,8/5,
5/8h[16:3],{16}E6,E5,E4,7,,,{8}7h[16:3],{16}E5,E4,E3,6,
,,{8}6h[16:3],{16}3,2,1,5,,,{8}5h[8:1],{4}B2/E2/B1,
{8}1/4,4/1h[16:3],{16}4,5,6,2,,,{8}2h[16:3],{16}5,6,7,3,
,,{8}3h[16:3],{16}6,7,8,4,,,{8}4h[8:1],{48}E8f,B7,B6,E6,,,,,,,,,{4}5x/2xh[2:1],
{8}4-7[8:1],4,{4}4,{8}1-6[8:1],6-1[8:1],
1-3-8-4b[8:3],5,5,6,7-3[8:1],7,,,{4}2/5h[2:1],
{8}1-4[8:1],2,{4}1,{8}6,6,
{16}7,5,{8}7,{16}4,6,{8}4,8<5b[8:1]/3>8b[8:1],3/8,,,6x/1x,
{16}2,5,{8}2,4h[8:1]/3h[8:1],{16},4h[8:1]/5h[8:1],,,{4}5h[8:1]/6h[8:1],
{8}7x/4x,{16}8,3,{8}8,1h[8:1]/2h[8:1],{16},8h[8:1]/1h[8:1],,,{4}7h[8:1]/8h[8:1],
{8}6x/1x,{16}2,5,{8}2,{16}4,3h[8:1],,5,{8}3h[8:1],6,6-1[8:1]/3-8[8:1],
5/4,6x/3x,,7/2,{16}1,8,2,7,3,6,4,5,
{1}3bx>6<3b[4:15],
E
