&title=アイムマイン
&artist=halyosy
&first=0.02
&des_1=VOCALOID.
&des_2=VOCALOID.
&des_3=VOCALOID.
&des_4=VOCALOID.
&des_5=VOCALOID.
&lv_5=13
&des_6=VOCALOID.
&des_7=VOCALOID.
&des=VOCALOID.
&inote_5=(135)
{4}
,,,,
{16}
5x-8[4:2],,,,,,,,,,,,,,,,
{16}
4x-1[4:2],,,,,,,,,,,,,,,,
{16}
6x<2[4:1],,,,,,,,3x<7[4:1],,,,,,,,
{16}
8x-5[4:1],,,,,,,,4x,,,,,,,,
{16}
8<2[4:7],,,,,,,,,,,,,,,,
{16}
1h[4:5],,,,,,,,,,,,,,,,
||s2/4
{16}
,,,,8b,,,,
||s4/4
{16}
E7f,,2,4,3,,2,4,3,5<8[12:1],,2>5[12:1],,,,,
{16}
,,8h[8:1],,6,8,1,7,2x,4,3,6x,5,7,1x,,
{16}
82,,2,4,3,,2,4,3,5-8[12:1],,2-5[12:1],,,,,
{16}
1bx<6b[12:1],,,,1x/4bx>1b[12:1],,,,5bx-8b[16:1],,,5bx-2b[16:1],,,5bx,,
{16}
8x,,,,7,,,,6,,,,5,,,,
{16}
4xpp7<4[8:5],,,,3,,,,2,,,,1,,,,
{16}
8x-4-1-3[4:2],,,,5,,,,6,,,,7,,,,
{16}
8x-4b[8:1]/4x,,,,,,,,2b/6b,,,,8b/4b,,,,
{16}
81,,7,5,6,,4,,6,5,7,,8,,8,,
{16}
3<6[8:1],,2,6>3[8:1],3,,7,,8,,,,2,,4,,
{16}
5<8[8:1]/3,,,,3>8[8:1],,,,4-8[8:1],,,,1,,1,,
{16}
2>5[8:1],,2,,8<5[8:1],,8,,1,,3,4x,1,,,,
{16}
4/3h[4:2],,,,E2/A2,,,,,,43,,12,,,,
{16}
8/7h[4:2],,,,E6/A6,,,,,,87,,56,,,,
{16}
7x<6>5>4pp4[8:3]/1x>2>3<4qq4[8:3],,,,1x/7x,,,,,,,,,,13,,
{16}
1^2^3^4<8[4:2]/3^2^1^8p4[4:2],,,,,,,,,,,,,,,,
{16}
1/2h[2:1],,,,B3/A3,,,,,,12,,68,,,,
{16}
8/7h[2:1],,,,B6/A6,,,,,,87,,13,,,,
{16}
27,,3,4,,6,5,,2,4,,7,5,,1qq6[8:6]/8,,
{16}
2,,2,,3,,3,,4,,4,,5,,5,,
{16}
3,4,2,6,5,7,2,,8-3[12:1]/4h[4:1],,,,,,,,
{16}
4-1[12:1],,,,8<5[12:1]/4,,8,,4-1[12:1],,,,8/4,,,,
{16}
6h[16:3],,,8h[16:3],,,2,,4-1[12:1],,,,84,,,,
{16}
6,,6,8,,8,2,,24,,,57,,,18,,
{16}
1pp4[8:3]/8qq5[8:3],,,,,,,,,,,,,,1,,
{16}
15,,2,4,,3,5,,6-2[12:1],4,6,,8b,,,,
{16}
84,,7,5,,6,4,,3-7[12:1],5,3,,1b,,,,
{16}
28,,3>8[8:1],3,,,7,6,5<8[8:1],,1,1,,,2,3,
{16}
4,,8,6,,1,3,,,1,5,,26,,37,,
{16}
8-5[12:1]/4,,2,,8b/4,,,,8-5[12:1]/4,,2,,8b/4,,,,
{16}
4-8[12:1],,3,,2-6[8:1],,1,,8>3[12:1]*<5[12:1],,7,,8b,,,,
{16}
3,,3,1,,1,7,,75,,,42,,,71,,
{16}
2V48[4:1]/5V38[4:1],,,,,,,,E8/B8f/E1,,,,,,8,,
{16}
1hx[16:3],,,2,,,3,4,3hx[16:3],,,8,,,6,5,
{16}
6hx[16:3],,,1,,,3,4,3>8[12:1],,,,3/7b,,,,
{16}
6hx[16:3],,,8,,,3,4,2hx[16:3],,,8,,,6,4,
{16}
8hx[16:3],,,1,,,7,3,5<8[12:1],,,,5b/1,,,,
{16}
1-5[12:1],,,,5,,7-3[12:1],,,,7/1-5[12:1],,,,1/3-7[12:1],,
{16}
,,3,,1-5[12:1],,,3,5x/1,,,,1b,,,,
{16}
B8,,B2,B6,,B4,,B7,,B3,,B5,C,,,,
{16}
7,8,6,8,7,4,5,,37,,2,1/2x,,8,1/8x,,
{16}
7,5,6,4,8,3,4,2,7/8x,,,5x/6,,,8x/1,,
{16}
2,4,3,4,1,8,1,,62,,3,4/3x,,5,4/5x,,
{16}
2,4,3,5,1,6,5,7,2/1x,,,4x/3,,,1x/8,,
{16}
6pp4[8:4]/2,,,,,,,,E3,,,,,,,,
{16}
1qq4[8:4],,,,,,,,E6,,,,E7,,,,
{16}
7p1<8-4[8:4]/1,,,,,,,,A2,,,,,,,,
{16}
2q7>8-4[8:4],,,,,,,,A6,,,,5b,,,,
{16}
21,,3,,21,,8,,21,,3,5,4,,7,,
{16}
81,,2,,81,,7,,81,,2,6,4,,78,,
{16}
1,,2,4,3,4,2,,18,,7,5,6,5,7,,
{16}
82,,3,5,4,6,5,,17,,6,4,5,3,4,,
{16}
3-8[12:1]/4,,17,,34,,7,,6-1[12:1]/5,,28,,65,,2,,
{16}
3,4,2,6,5,7,3,4,2xpp1[4:1],,,,1>7[4:1],,,,
{16}
B8,,,,8-5b[4:1],,,,4h[4:1],,,,,,,,
{16}
B6h[4:1]/E4,,,E3,,,E2,,B6f/E1,,,,,,,,
{16}
2,4,3,6,5,7,1,,3/7s3[4:1],,,,,,,,
{16}
1x>8[4:3],,,,,,,,,,,,,,,,
{16}
1x>2>4<5<7>8[4:3],,,,,,,,,,,,,,,,
{16}
4x-2-8-6[16:5],,,,,,,,3x>5[32:9],,,,,,,,
{16}
1xqq4[8:3],,,,,,,,5,,,,,,,,
{16}
3>8[12:1]/4,,,,34,,,,3>8[12:1]/4,,,,34,,,,
{16}
6<1[12:1]/5,,,,65,,,,6<1[12:1]/5,,,,65,,,,
{16}
2,4,3,5,4,6,5,7,6x>3[12:1],,8,,6,,,,
{16}
1b/8b,,3,2b/4b,,6,5b/7b,,1b-4[12:1]/8b-5[12:1],,,,,,,,
{16}
4<1[8:1]/3qq2[8:1],,,,4bx/3bx,,,,4<1b[8:1]/3qq2b[8:1],,,,4bx/3bx,,,,
{16}
4<3[8:3],,,,,,,,,,,,4w8b[12:1],,,,
{16}
A5/E5/B4f/E4/A3/B5/B3,,,,5w1[12:1],,,,A4/E5/B5f/E6/A6/B4/B6,,,,7<4[12:1]/3>8[12:1],,,,
{16}
7bx/3bx,,,,1-5b[12:1]/3-7[12:1],,,,{16}1bx>8[4:1]/3bx`Cf,,,,,,,,
{16}
1hx[16:3],,,2,,,3,4,1hx[16:3],,,8,,,6,5,
{16}
8hx[16:3],,,1,,,3,7,5x>1[8:1],,,,5b/8,,7,6,
{16}
5hx[16:3],,,8,,,1,7,3hx[16:3],,,4,,,6,2,
{16}
8hx[16:3],,,1,,,2,8,4x>1[12:1]*<7[12:1],,,,4b,,,,
{16}
1b-5b[12:1],,,,5,,7b-3b[12:1],,,,7/1b-5b[12:1],,,,1/3b-7b[12:1],,
{16}
,,3b,,1b-5b[12:1],,,3,5x/1b,,,,1b,,,,
{16}
E7f,,1,4,3,,1,4,3,6,5-1[12:1],8hx[16:3],,,5,,
{16}
8,,2h[8:1],,1,3,5,4,7x,6,8,2x,4,3,8x,,
{16}
2b/6b,,1,4,3,,1,4,3,6,5-1[12:1],8hx[16:3],,,5,,
{16}
8bx>3b[12:1],,,,8bx/4bx<7b[12:1],,,,4bx,,1x,1bx,,1xw5[12:1],7bx/3bx,,
{16}
,,,,,,,,,,,,,,,,
E
