&title=Wizdomiot
&artist=LeaF
&first=-0.065
&des=TragiC
&lv_5=14+
&des_5=TragiC
&inote_5=
(200){4},{1},{4},,{24}8b/1b,
7/2,6/3-5-8[12:11],5/4,{1},{4},{16},{48},{8}7/2,
7/2-8-4[8:7]*-8v3[8:7],,,,,,,,,,,{4}6h[8:1],
6h[8:1],6h[8:1],7/5h[8:1],5h[8:1],
5h[8:1],{8}4/8,8/4,{4}3h[8:1],3h[8:1],
5/2h[8:1],2h[8:1],2h[8:1],4/1h[8:1],
5/1h[8:1],6/1h[8:1],7/2h[8:1],7/3h[8:1],
7/4h[8:1],5/8h[8:1],4/8h[8:1],3/8h[8:1],
2/7h[8:1],2/6h[8:1],2/5h[8:1],{8}3b/4,4,
2,2,8,8,5,5,6,6,
2,2,{4}4bh[4:1],{16}3,5,3,5,2,6,2,6,
1,7,1,7,2,8,2,8,3,7,3,7,{4}5-1[8:1],
{1}6h[1:2]/5qq2>5b[4:7],
,{4},,{16}3,
5,3,5,{8}1b,{16}4,3,
{8}4,2b,{16}5,4,{8}5,3b,{16}6,5,{8}6,4b,
{16}7,5,7,5,{4}8-2-6-4[4:3],,,{2}3h[2:1],
{16}2,1,8,7,{4}6/4b,
{16}3,5,3,5,2,6,2,6,1,2,3,4,8,1,2,3,
7,8,1,2,{4}3/5,{16}6,4,6,4,7,3,7,3,
8,7,6,5,1,8,7,6,2,1,8,7,{4}6/4,
{16}3,5,3,5,2,4,2,4,1,2,3,4,8,1,2,3,
7,8,1,2,5,3,5,3,{8}6h[8:1],{16}3,5,3,5,{8}2h[8:1],
{16}5,3,4,3,6,4,5,4,7,5,6,5,{4}8b<2[8:3],
{2}8h[4:1],{16}7,6,5,4,8,7,6,5,
1,8,7,6,{8}5/3,{16}2,4,{8}2,8,1,{16}7,6,
{8}5h[4:1],{16}4,3,2,1,8,7,6/2,5,4,3,{4}6/2h[4:1],
{16}4,5,6,7,{4}8/3h[4:1],{16}2,1,8,7,6/2,5,4,3,
2/6,1,8,7,6/4,3,2,1,8/4,7,6,5,4/8,3,2,1,
7,8,7,8,7,8,7,8,7-3[8:1],8,7,8,{4}7bx,
{1}5h[2:1]/1qq6<1[4:7],
{8},,,,,,,,,,,,5,
5,{4}6/4,
6,6-4[8:1],3/6x,3,
3-1[8:1],{8}7/3x,7,6,6,5,5,
{16}2,4,2,4,1,5,1,5,8,1,2,3,{4}4-8[8:1],
{8}5/4,6,7-3[8:1],1,7,2-5[8:1],4,2,
6-8[8:1],4,{4}6,5>1[4:1],{16}1,8,7,6,
{4}5h[4:1],1,{16}1,2,3,4,5/7h[16:3],,,6h[16:3],
,,{8}5h[8:1],3,2,1/6,{16}7,8,{8}7-4[8:1],1-5[8:1],
{2}7>2[8:1],{4}5>1[4:1],{16}1,8,7,6,
{4}5h[2:1],1,1,{16}2h[16:3],,,3h[16:3],
,,{8}4h[8:1],6,7,8/3,{16}2,1,{8}2-5[8:1],8-4[8:1],
{2}2<7[8:1],{4}4<8[4:1],{16}8,1,2,3,
{4}4h[2:1],8,8,{16}8/4,,,7/3,
{8}3/7,6/2,,6/2,5/1,5/1,{4}5-8[8:1]/1-4[8:1],
5x/1x,{8}7-4[8:1]/3-8[8:1],3/7,{4}3/7,{32}2x/6,3x,4x,5x,6x,7x,8x,1x,
{4}2xh[4:3]/4-8[8:1],Cf,,8b<7<6>5>4>3>2<1[4:17],
,,{2}1h[64:1],
{4},2h[64:1],,,3h[64:1],
,,4h[64:1],
,,{2}5h[64:1],
{4},6x<7>8>1>2>3<4b[0.9##0.9],,,,,,5h[2:1],
,,{2}6h[2:1]/4h[4:1],
{4},5h[4:1]/3h[2:1],,,{2}4h[4:1]/2h[2:1],
{8}4,3,{4}8h[2:1],
,,{2}7h[4:1]/1h[2:1],
{4},6/2h[4:1],{24},,,E7,B6,B5,{8}3,3,
5x,4,6,3,7,2,{4}8bxh[2:1],
,,{2}2h[2:1]/4h[4:1],
{4},3h[2:1]/5h[4:1],,,{2}6h[2:1]/4h[4:1],
{8}5,7,{4}1h[2:1],
,,{2}2h[2:1]/8h[4:1],
{16},,,,3/7h[4:3],4,{8}5<3[8:9],,,,,,,,,,,{4}4h[8:1],
4h[8:1],4h[8:1],5/3h[8:1],3h[8:1],
3h[8:1],{16}5,4,{8}5,3,{16}6,5,6,5,{8}6,
{16}4,5,4,5,{8}4,{16}6,5,6,5,{8}6,{16}3,4,3,4,
{8}3,{16}5,4,5,4,{8}5,{16}3,4,3,4,{8}3,{16}6,5,
6,5,{8}6,{16}3,5,3,5,2,6,2,6,1,7,1,7,
2,8,2,8,3,7,3,7,4,6,4,6,{4}5w1[0.9##0.6],
{1},{4},{16}4,
5,4,5,3,6,3,6,2,7,2,7,
1,2,3,4,6,7,8,1,5,4,3,2,7,8,7,8,
6,1,6,1,5,2,5,2,7,6,5,4,8,1,2,3,
5,6,7,8,2,1,2,1,3,8,3,8,4,7,4,7,
5,4,3,2,8,7,6,5,1,2,3,4,6,5,6,5,
7,4,7,4,8,3,8,3,1,8,7,6,4,3,2,1,
5,6,7,8,3,1,3,1,5,6,5,6,4,8,4,8,
3,2,1,8,5,6,7,8,4,3,2,1,6,8,6,8,
4,3,4,3,5,1,5,1,6,7,8,1,4,3,2,1,
4,5,6,7,{4}1b/8,{16}2,5,2,5,3,6,3,6,
4,3,2,1,8/4,7,6,5,4/8,3,2,1,8/4,3,2,1,
8/4,7,6,5,8/4v6-8-2-5[4:3],3,2,1,{2}4/8,
{4},7h[4:1],{8},6h[4:1]/4h[4:1],,,5h[4:1]/3h[4:1],
,,4h[4:1]/2h[4:1],,,{4}1h[4:3]/3>5[0.9##0.9],
,,,,,1b>2>3<4<5<6<7>8b[4:17],
,,8h[64:1],
,,7h[64:1],
,,{2}6h[64:1],
{4},5h[64:1],,,4h[64:1],
,,3h[64:1],
,,{2}2,
{4}1/7,{8}6/2,{16}3,4,3,4,{8}3,1b/2b,8b/3b,
4b/7b,,,1b/6b,,,{4}4b/2b,
{8}3b/5b,,,8b/7b,6b/2b,,,8b/3b,
,,{4}5b/7b,{32}8,7,6,5,{8}3b,{32}7,6,5,4,{8}2,
{16}1b,8,1,8,1,8,5b,7,5,7,5,7,4b,6,4,6,
3b,5,3,5,2b,4,2,4,{32}1,8,7,6,{8}4h[16:1],{32}8,1,2,3,{8}5h[16:1],
{16}4,4,4,4,2,5,3,6,4,7,1,8,2,7,3,6,
4,3,2,1,8/4,7,6,5,4/8,3,2,1,7,8,6,1,
5,2,4,3,5,4,6,5,{8}7h[16:1],7h[16:1],8h[16:1]/2h[16:1],8h[16:1]/2h[16:1],
5h[16:1]/6h[16:1],6h[16:1]/5h[16:1],8/4,{16}3,2,1/6,5,4,3,2,1,8,7,
4,6,4,6,3,7,3,7,2,8,2,8,1,1,{8}1,
{16}7/5,7/5,,6/4,,,{8}3/5,{16}2,8,2,8,2,8,2,8,
2,8,2,8,{4}3b/7bx,{16}2,1,8,7,6,5,4,3,
1,2,1,2,8,3,7,3,6,4,5,4,{8}7h[4:1],{16}5,4,
3,2,{8}6h[4:1],{16}4,3,2,1,{8}5h[8:1],{16}3,4,2,8,2,8,
1,7,1,7,5b,6,5,6,4,5,4,5,3,4,3,4,
2,8,1,7,5,6,3,4,2,8,1,7,2b,5,4,6,
3,4,2,7,5,6,2,4,3,6,5,7,4,5,2,4,
3,8,5,6,{4}1b>8b[4:47],{1},,,,,{4},,,1xp8[4:23],
E
