&title=发条鸟即兴曲
&artist=烂兔子P,诗岸
&first=0.13
&lv_5=13
&des_5=Hiyori
&inote_5=
(95){12}6x,{24}6,5,,5,{8}4,{24}3,,3-6[12:1],{12}4,{24}4,5,,3,,,,,,,{12}6x,
{24}6,5,,5,{12}4,{24}4,3,,3,{8}4q5[8:1],6/3,{4}4,
{12}3x,{24}3,4,,4,{8}5,{24}6,,6-3[12:1],{12}5,{24}5,4,,6,,,,,,,{12}3x,
{24}3,4,,4,{12}5,{24}5,6,,6,{8}5p4[8:1],3/6,{4}5,
{12}3,{24}3,4q5[8:1],,,{8}3/6,4,{12}6,{24}6,5x,,,{4}6/4,
{12}6,{24}6,5p4[8:1],,,{8}6/3,5,{12}3,{24}3,4x,,,{4}3/5,
{12}5,{24}4,7v4[12:1]/3v8[12:1],,,{8}6/2,7/3,{24},,6,5,,,{4}4/3,
{12}4,{24}5,2v5[12:1]/6v1[12:1],,,{8}3/7,2/6,,4/5,{24}4,5h[8:1],{6}4h[8:1],
{8}5b/3,5,5/3,5,5/2,5,{4}5/2,
{8}3b/6,3,3/6,3,3/7,3,{4}3/7,
{8}5/6b,7,4/3,2,7/2,6/3,{24}5/4,,,,,3b,
{12}4,{24}4,5,,,{8}8>2v4>3[8:3]*<6v4>3[8:3],{24}1,,7,{2}8,
{8}Cf,,,5/1>4[4:1],6,{24}1/7,,6h[24:1],,,{6}5h[24:1],
{24}7b/3,,,,,6/2,,,8,1pp1[4:1],,5,{8}4,1/7,{24}6,,,,,5,
{8}4-1-6>3-8-5[8:5],1,4/6,7,8,7h[8:1],{24},,,,,,6/2,
,,,,3/7,,,1,8qq8[4:1],,4,{8}5,8/1,{24}3,,,,,2h[6:1],
{8}1,8<6-2<8-4<5[24:13],3,4/8,5,3h[8:1],{24},,,,,,2/6,
,,,,3/7,,,7-2-5-8>1[12:5],2-7-4-8>1[8:3],,6,{12}3,{24}7,2,,,,,,,,,{8}A1,
2/8,3/7,6pp4[4:1]/3qq5[4:1],7/2,6/3,{16},,,,B5/E5/Ch[16:11],
,,E7/B7,,,{8}E1/B1,{16}E3/B3,,,B5/B4/E5/E1/B8/B1,,,{8}B5/B6/Ch[8:5],
{16}B7/B8,,,B1/B2,,,{8}B3/B4,{4}B7/B6/B2/B3/E3/E7,{48}8/1,2,{24}3h[24:5],,{8}7,
6,5/4,{48}8/1,7,{24}6h[24:5],,{8}2,3,5/4,{48}8/1,2/7,{24}6h[12:1]/3h[24:1],,,,,{8}5/4,
1/8-4[8:1],7/2-6[12:1],8,{4}2,{48}8/2,3,{24}4h[12:1],,{8}7,
8/2,1/8,{48}7/1,6,{24}5h[12:1],,{8}2,7/1,8/1,{48}2/7,3/6,{24}4h[24:1]/5h[12:1],,,,,{8}7/4,
5/3,3pp4[8:1]/2<1-4[8:1],4/3,{2}3b/2b,
{8}3b/B8f,3/B7,3/B6,{24}3/B8,,B7,{8}3/B6,3/B8,3h[8:1]/B7,B6,
6bx/B1f,6/B2,6/B3,{24}6/B1,,B2,{8}6/B3,6/B1,6h[8:1]/B2,B3,
4bx/B8f,4/B7,4/B6,{24}4/B8,,B7,{8}4/B6,4/B8,{24}4/B7,,,,,B1f,
{12}5/B2,{24}B3,5/B4,,,{8}5/B1,{24}5/B2,,B3,{8}5h[8:1]/B4,C,{32}4,5,4,5,4,5,4,5,
{8}4bx/E8f,4x/E7,4/E6,{24}4/E8,,E7,{8}4/E6,4/E8,4h[8:1]/E7,E6,
5b/E2f,5/E3,5/E4,{24}5/E2,,E3,{8}5/E4,5/E2,5h[8:1]/E3,E4,
1b/E8f,1/E7,1/E6,{24}1/E5,,E8,{8}1/E7,1/E6,{24}1/E5,,,,,E2f,
{12}8/E3,{24}E4,8/E5,,,{8}8/E2,{24}8/E3,,E4,{8}8h[8:1]/E5,Ch[4:1],{16},,,,2<7-3<6[8:5],
,,5,,,{8}6h[8:1],,7h[8:1],{16},,,,8-5q4[8:5],
,,4,,,{8}3h[8:1],,2h[8:1],{16},,2,3,
4-8-6v4[8:5],,,7,,,{8}3h[8:1],,2h[8:1],{16},,,,6-8-4-2[8:5],
,,2,,,{8}4h[8:1],,3h[8:1],,1-6[12:1],
8-3[12:1],,,5-2[12:1],4-7[12:1],,,1-5[12:1],
7-3[12:1],1,7,4h[8:1],{4}5,{8}4/3pp4-1-3[2:1],{16}6,6,
{8}3/6h[16:3],,,6,5,4qq4pp4[8:3],3,4,
5h[16:3],,,6,3pp4[8:1]/2<1-4[8:1],3/4,{4}2b/3b/E3f,
{8}2/8b-5[12:1],7/3,8/4-1[12:1],{24}6x,,5,{8}4-7[12:1],5,4/2-5[12:1],E1,
2/6-1[12:1],7,6/2-5[12:1],{24}8x,,1,{8}2-7[12:1],1,{4}2b/4b,
{8}1/5<8[12:1],6/2,5/1>4[12:1],{24}2x,,7,{8}1,6h[8:1],{24}5-8[12:1],,,,,3,
{12}5-2[12:1],{24}4,7xh[24:5],,,5<1[12:1],,,,,3h[6:1],5,,,,,8,2,7,3,6,4,5,
{8}1b-4[12:1],2/6,1/5-8[12:1],{24}3x,,4,{8}5-2[12:1],4,5/7-4[12:1],E1,
7/3-8[12:1],2,3/7-4[12:1],{24}1x,,8,{8}7-2[12:1],8,{4}7b/5b,
{8}8/4>1[12:1],3/7,4/8<5[12:1],{24}7x,,2,{8}8,3h[8:1],{24}4-1[12:1],,,,,6,
{12}4-7[12:1],{24}5,2xh[24:5],,,4>8[12:1],,,,,6h[6:1],{4}4,{24}1,7,2,6,3,5,
{12}4x-1[12:1],{24}3,8-5[12:1],,,{8}4/6,8,{12}2-7[12:1],{24}1,7<2[8:1],,,{4}2/8,
{12}8qq6[12:1],{24}1,6>3[12:1],,,{8}8/6x,7,8<6v4>3[6:1]*>2v4>3[6:1],4,{4}8,
{12}5x-8[12:1],{24}6,1-4[12:1],,,{8}5/3,1,{12}7-2[12:1],{24}8,2>7[8:1],,,{4}7/1,
{12}1pp3[12:1],{24}8,3<6[12:1],,,1x/3x,,,,,1,{12}1-5[12:1],{24}8,8-4[12:1],,1,{12}1,{24}8,8,,,{12}2h[4:1],
{24}B7,B6,,,{12}7h[4:1],{24}B2,B3,,,{8}1h[4:1],C,{4}8h[4:1],
{12}Ch[4:1],{24}B8,B7,,,{12}E7,{24}B6,B5,,,{8}E2/Ch[4:1],E3,{4}E4,
{1}1<7-3>1-5<6[8:5],
8b>2-6<8-4<5b[8:5],
E
