&title=You
&artist=May'n
&first=0.14
&des="Elias Ainsworth"
&lv_5=13+
&inote_5=(166)
{1}
,,
{4}
8<1[4:5],,,,,,,,
3h[1:1],,,,4h[1:1],,,,
5<4[4:5],,,,,,,,
5h[2:3],,,,4h[2:1],,,,
{16}
3,4,3,4,3,,6,5,
6,5,6,,2,4,3,4,
3,,7,5,6,5,6,,
2,4,3,5,4,5,3,4,
2,1,3,1,2,,7,8,
6,8,7,,1,4,2,4,
3,,6,5,7,5,8,,
3,4,3,4,2,5,2,5,
1,5,2,4,3,,6,5,
7,4,8,,2,1,3,8,
4,,6,5,7,4,8,,
3,7,2,6,1,5,8,4,
{24}
1bx/5xh[8:1],2x,3x,4x,,,,,,
1bx/6xh[8:1],2x,3x,4x,,,,,,
1bx/7bx,2x/6x,3qq4[12:5]x/5xpp4[12:5],4x,,,
{1}
,
1>8[4:5]/C,,
{8}
7h[8:3],,,5<8[8:3],,4,3,2,
1h[8:3],,,3<6[8:3],,,,,
2,3,4,5,,6h[4:1],,5,
4,3-6[8:3],,2h[8:3],,,,,
1w5[2:1],,,,,,,,
,A8,E2,B7,B3,E6,A4,,
6,,6,5,6,,6/5qq1[4:3],,
7,,7,,7,,7,,
8/1pp1[2:1],,8,,8,,8>4[2:1],,
7,,7,,6,,6,,
4/5,,4,6,4,,4/7qq1[4:3],,
3,,3,,3,,3,,
2<4pp6[4:5]/3,,3,,3,,3,,
2,,2,,1,,1,,
{4}
1/4<6[8:3],,B3/E3,,5>3[8:3],,E7/B6,,
7qq5<8[1:1]/2pp4>1[1:1],,,,
{8}
,,,,1/8,2/7,3/6,4/5,
{16}
2b/7b,,,,4,5,4,5,4,5,4,5,4,5,4,5,
4,5,4,5,4,5,4,5,4,5,4,5,4,5,4,5,
{8}
3b<6[8:1]/6b,,7,7p3[8:1],,1,1>6[4:1],,
5,6,7,8bV64[4:1],,5,4,3,
2b<7[16:3],8<5[16:3],6>3[16:3],4>8[4:1],,8,6,4-8[8:1],
,4qq5[16:3],,,,8>3[16:3],2>5[16:3],4<1[16:5],
,8>3[16:3],2>5[16:3],4<1[16:5],,8,2,4-8[8:1],
,4w8[8:1],,,,1/7,2/6,3/5-1[8:1],
,5/2-5[8:1],,2/8-4[8:1],,8/3-8[8:1],,3/7,
7-4[8:1],,4V61[4:1],2-5[8:1],,2,,,
{16}
8/4,,6,5,6,,7-3[8:1]/4,,
{8}
,7/2-5[8:1],,2/8<3[4:1],,
3,2,1bV35[4:1],,4,5,6,
7b>2[16:3],1>4[16:3],3<6[16:3],5<1[4:1],,1,3,5-1[8:1],
,5pp4[16:3],,,,1<6[16:3],7<4[16:3],5>8[16:5],
,1<6[16:3],7<4[16:3],5>8[16:5],,1,7,5-1[8:1],
,4-8[8:1],,3-7[8:1],,2,2-6[8:1],,
4<2[2:1],,,,E3/E4,,,,
5>7[2:1],,,,E7/E6,,,,
5pp4[4:3],,,,E3/E4,,,,
1pp8[4:3],,,,E7/E6,,,,
4-8b[2:1],,,,,,,,
{24}
1x/7x,2x/6x,3x>5[12:5]/5x<3[12:5],4x,,,
{4}
,,,
{16}
2/5,,,3,4,,2/8-4[8:1],,,,8/1-6[8:1],,,,1/5,,
{24}
,,,5,,,8b/5b,6x/1xqq3[24:35],7x/2x,8xqq4b[24:33]/3x,,,
{2}
,,,,,
E
