&title=Bliss
&artist=litmus*
&first=0.02
&des=IcreApt
&lv_5=13
&lv_6=13
&inote_5=(128){1},
{1},
{8}6h[4:1]/4,,B6,,3h[4:1]/5,,B3,1x^6[8:1],
{16},,,,C,,,,1/8,,,7/5,,,2/4,,
{8}6h[4:1]/3,,E8,,3h[4:1]/6,,E2,8xv5[8:1]*-6[8:1],
{16},,8xv3[8:1]*-2[8:1],,,,8x,,,,2,,3,,4,,
{8}7/5,8,2/4,1,7/5,8,2/4,1pp3[8:1],
{16},,1xqq5[8:3],,,,1x,,2,,,3,,,4,,
{8}C,,7/4,6,5/2,3,7/4,6h[2:1],
{16},,1,,2,,3,,4w8[12:1]*w8[12:1],5,4,5,4x,,,,
{16}7/1,,,,2,,3,,E7/4,,,C/5,,,E3/6,,
{8},1,8,7,6,5,4,3,
{16}2/8,,,,7,,6,,E3/5,,,C/4,,,E7/3,,
{8},8,1pp3[8:1],2,1xpp2[8:1],8x,1x,7x,
{8}6-1b[8:1],6,5-2b[8:1],5,6-1b[8:1],6,5-2b[8:1],5,
{8}6-1b[8:1],6,5-2b[8:1],5,6-1b[8:1],6,5,5,
{16}8x,4,8,4,7,3,7,3,6,2,6,2,5,1,5,1,
{4}6xpp7-5[4:1],6xqq5[4:1],,Cf,
{16}7b/2b,,,,8-6[8:1]/1-5[8:1],,8/1,,8x-4[8:1]/1x-3[8:1],,,,8x/1x,,,C,
{16},,7/4,,6,5,,5/2,,3,4,,7/5,,4/2,,
{16}6b/3b,,,,4-2[8:1]/5-1[8:1],,4/5,,4x-8[8:1]/5x-7[8:1],,,,4x/5x,,,C,
{16},,1/5,,2,,7/3,,6,,1/5,,2<4[8:1],,,Cf,
{16},,,,7x-5[8:1]/1x-5[8:1],,7/1,,7x-3[8:1]/1x-3[8:1],,,,7x/1x,,,C,
{16},,4/7,,5/6,5/6,,2/5,,3/4,3/4,,8/1,,4/5,,
{16}7b/3b,,,,6-4[8:1]/2-8[8:1],,6/2,,6x-8[8:1]/2x-4[8:1],,,,6x-3b[16:1]/2x-7b[16:1],,,6bx/2bx/Cf,
{1},
{8},,4,3,2,1>5[4:1],,5<1[4:1],
{8},1w5[4:1],,,,,,,
{8},,7,6,5,4V68[4:1],,8V24[4:1],
{8},4,,8,,E2,Chf[4:1],,
{8},,1xs5[8:1]/8xz4[8:1],,E1,,6/3,7/2,
{8},1xpp4[8:3]/8xqq5[8:3],,1x/8x,,,,,
{8}E5,,7/4,6,5/2,3,7/4,6h[2:1],
{16},,1,,2,,3,,4w8[12:1],5,4,5,4x,,,,
{8}5,8/2,4,7/1,5,8/2,4,7/1,
{8}5,1/2,4,7/8,5,1/2,4,7/8,
{8}5,8/3,4,6/1,5,8/3,4,6/1,
{8}5,1/3,4,6/8,5,1/3,4,6/8,
{8}5-1b[8:1],5,4-8[8:1],4,3-7b[8:1],3,2-6[8:1],2,
{8}8x-4b[8:1],8,1-5[8:1],1,2-6b[8:1],2,3,3,
{16}5,4,5,4,6,3,6,3,7,2,7,2,8x-2^4[8:1]/1x,,,,
{4}8x/1x-7^5[8:1],8x-2^4[8:1]/1x,8x/1xw5[12:1],Cf,
{16}3b/7b,,,,1-3^4[8:1]/8-2-4[8:1],,1/8,,1x-7-5[8:1]/8x-6^5[8:1],,,,1x/8x,,,C,
{16},,1/4,,2,3,,5/8,,7,6,,5/2,,4/7,,
{16}2b/6b,,,,8^2[8:1]/4^6[8:1],,8/4,,8x^6[8:1]/4x^2[8:1],,,,8x/4x,,,C,
{16},,6/1,,5/2,,4/3,,7bx/8bx,,5/4,,1bx/2bx,,,Cf/B3/B4/B6/B5,
{16},,,,2x^4[8:1]/8xq4[8:1],,2/8,,2xp6[8:1]/8x^6[8:1],,,,2x/8x,,,C,
{16},,7/3,,6/2,6/2,,7/3,,4/8,4/8,,1/5,,7/3,,
{16}2b/6b,,,,4^7[8:1]*^1[8:1],,4,,4x-8[8:1],,,,4xw8[16:1],,,4bx/Cf,
{1},
{16}3x/8x,,3/6,,3/7,,3/5,,3/8,,2,4,3,,5/6,5/6,
{16},,7/4,,8,1,,2/5,,1,8,,6/3,,4/5,,
{16}2x/8x,,2/E7/B6,,2/8,,2/E7/B6,,2/8,,7,5,6,,3/4,3/4,
{64},,,,,,,,5/2,,,,,,,,3/6,,,,,,,,4/7,,,,,,,,6x/5x,E7/E5,B7/B4,B3/B8,E1/E3,,,,,,,,,,,,4x/3x,E5/E3,B5/B2,B6/B1,E7/E1,,,,,,,,6x/3x,E7/E3,B2/B7,B8/B1,
{64}E1f,A8/A1,,,,,,,,,,,,,,,3x/7x,,,,,,,,C,,,,,,,,2/6,,,,,,,,C,,,,,,,,3/7,,,,,,,,5/4,,,,5/4,,,,
{16},,6/2,,3/7,3/7,,6/2,,5/1,5/1,,6/2,,8/4,,
{16}6/3,,7/2,,1b/Cf,,6/3,,8b/Cf,,,,1b/Cf,,,B8/Cf/B1/B3/D3/E3/B6/D7/E7/A3/A6,
{2},Chf[4:1],
E
&inote_6=(128){1},
{1},
{8}3h[4:1]/5h[4:1],,,,2h[4:1]/6h[4:1],,,7<4[16:3]/1-3[16:3],
{16},,,,,,,,6xh[8:1]/4xh[8:1],,,6xh[8:1]/4xh[8:1],,,7/3,,
{8}2h[4:1]/8h[4:1],,,,3h[4:1]/7h[4:1],,,6<1[16:3]/4-2[16:3],
{16},,,,,,,,8,3,6,4,5-8[8:1],,,,
{4}5/4x-2[8:1],4/5x-7[8:1],5/4x-1[8:1],5x-8[8:1]/4,
{4}5/4x-2[8:1],4/5x-7[8:1],1b-5[8:1]*-4[8:1]/5b,1x,
{8}6/3h[4:1],,7,6,2/5,3-8[8:1],6h[4:1]/4,3,
{16},,1,,7,,2,,8,3,6,2,5x-8[8:1]/4x-1[8:1],,,,
{16}4b/5b`Cf,,,,2/7,,3/6,,2/5h[16:3],,,3,6h[8:1],,4h[4:1],,
{8},7-3[8:1],3<1[8:3],7,1x,2,3,4,
{16}8x/3x,,,,8/3,,7/2,,6/1h[16:3],,,7,2h[8:1],,8h[4:1],,
{8},3-7[8:1],7<1[8:3],3,1x,8,7,6,
{8}6x-2[8:1],6,5-3[8:1],5,7x-1[8:1],7,6-2[8:1],6,
{8}8x,7,6/4,3,2-4[8:1],1-5[8:1],2,1,
{16}2x,2,6,3,7,4,8,3,7x,7,2,6,1,5,2bp6[4:1]*>5[4:1],,
{8},,,,7xV51[4:1],5-1b[8:1],7,,
{16}4x-2[8:1],,,,4/5-8[8:1]*q2[8:1],,6,,5x,,,,3h[16:3]/7x`6x,,,6x`5x,
{16},,2h[8:1],,4,1h[8:1],,5h[8:1],,2,6-3[8:1],,3-6[8:1],,6,,
{16}1x-4[8:1],,,,8-5[8:1]*p3[8:1]/1,,7,,8x,,,,6h[16:3]/1x`2x,,,2x`3x,
{16},,7-5[8:1],,5-1[8:1],,7,,2-4[8:1],,3,,2,,,
{32}7x,6x,
{16}5x-8[8:1],,,,1x-4[8:1]*q6[8:1]/5,,2,,1x,,,,3h[16:3]/8x`7x,,,7x`6x,
{16},,5h[8:1],,3,6h[8:1],,2h[8:1],,5,1-5[8:1],,5>1[16:3],,1,,
{16}8x-6[8:1],,,,8x-4[8:1],,2x,,8/1xh[16:3],,,,
{32}1x/5x,2x/6x,3x/7x,,,,3x/7x,2x/6x,
{16}1x/5x,,1x,2x,
{24}3x,4x,5x,6x,7x,8x,
{32}1x,2x,3x,4x,5x,6x,7x,8x,1xh[4:1],,,,,,,,
{16}8b,,7,5,6,4,5,,1x,,2,4,3,5,4,,
{16}7x,,6,4,5,3,4,,2x,,3,5,4,6,5,,
{16}8x,,7,4,6,3,5,,1x,,2,5,3,6,4,,
{16}7x,,6,3,5,2,4,,2x,,3,6,4,7,5,,
{16}8b,,2q6[8:1],2,8,8,2,,8x,,7p3[8:1],7,1,1,7,,
{16}2b,,1q5[8:1],1,8,8,1,,7x,,8p4[8:1],8,1,1,8,,
{16}1b>4[8:1],,6,6,1-5[8:1],7,7,,1x>4[8:1]/8x,,8x,8x,1,7,7,,
{16}8b<5[8:1],,3,3,8,2,2,,1-5[8:1],5,3,8,1`Cf,,,,
{8}8h[8:1]/4x,3,6h[8:1]/2,1,3h[8:1]/7,6,1h[8:1]/5,4,
{16}8h[8:1]/3,,2,,5h[8:1]/1-5[8:1],,8-6[8:1],,1,,8,,2,2,5,,
{8}4h[8:1]/8x,7,2h[8:1]/6,5,7h[8:1]/3,2,5h[8:1]/1,8,
{16}4h[8:1]/7,,6,,1h[8:1]/5-1[8:1],,4-2[8:1],,5,,4,,6,6,1,,
{8}8xh[8:1]/6x,7,6h[8:1]/4,5,4/2h[8:1],3,2/8h[8:1],1,
{8}8xh[8:1]/6x,5,4h[8:1]/2,1,7h[8:1]/5,4,
{16}3,8,2h[8:1],,
{16}8,8,1,1,6,6,3,3,7,7,2,2,5,5,4bV61[8:3]*V27[8:3],,
{4},,,3xb-1[32:3]/6xb,
{32}6x-8[32:3]/3,5,4,,,,,,3x-1[32:3]/6,4,5,,,,,,6x-8[32:3]/3,5,4,,,,,,3x/6,4,5,,,,6x/3x,,
{16},,2h[8:1],,7h[8:1],3-8[8:1],,7,,3,6-2[8:1],,5,,6,,
{16}1x<6[8:1],,,,1/5-8[8:1]*q2[8:1],,4,,5,,,,7h[16:3]/3x`4,,,4x`5,
{8},8-5[8:1],5V37[4:1],8,2,1,
{32}1x,2,3,,,,7x,6,
{16}5>2[8:1],,,,1-4[8:1]*q6[8:1]/5,,8,,1,,,,3h[16:3]/8x`7,,,7x`6,
{16},,6h[8:1],,3h[8:1],7-4[8:1],,3,,7,2-6[8:1],,1,,2,,
{32}5x<8[8:1],,,,,,,,4-1[8:1]*p7[8:1]/5,,,,3,,,,4,,,,,,,,8x/2,3,4,,,,1x/7,6,
{16}5,,1x,2x,
{24}3x,4x,5x,6x,7x,8x,
{32}1x,2x,3x,4x,5x,6x,7x,8x,1xh[4:1],,,,,,,,
{16}7b-5[8:1],,8-4[8:1],1,7,,8,,7V51[4:1],,8,1,7,,,
{32}2,3,
{16}4,,8h[8:1],,5,5,7,7,4-8[8:1],5,3-1[8:1],,4,,3,,
{16}6b-8[8:1],,5-1[8:1],4,6,,5,,6V84[4:1],,5,4,6,,,
{32}3,2,
{16}1q5[8:1],,8p4[8:1],,1,,8,,
{32}3b,2,1,,,,,,6b/3b,7,8,,,,4b/5b,3/6,
{16}2/7,,,,1b>3[8:1]*<6[8:1],,2/7,,
{32}1bq5[8:1],,,,,,,,1b,,,,,,6b,7,
{16}8,,7<4[8:1],,2,2,7>2[8:1],1,,2,7,,3,,7h[4:1],,
{32}3b<6[8:1],2,1,,,,,,
{16}8b-5[8:1]*p3[8:1]/3b,,1,,8b,,,,
{32}1b/7b,2/6,3/5,,,,8b/2b,7/3,
{16}6/4,,1,2,
{24}3,4,5,6,7,8,
{32}1,2,3,4,5,6,7,8,1h[4:3]/5qq8[2:1],,,,,,,,
{1},
E
