&title=OMG
&artist=Halv
&first=0.8
&des=ホシオアストラル
&des_5=ホシオアストラル
&lv_5=14
&inote_5=(170)
{4}6h[8:1],5h[8:1]/6h[8:1],6h[8:1],5h[8:1]/6h[8:1],3h[8:1],4h[8:1]/3h[8:1],3h[8:1],4h[8:1]/3h[8:1],
{4}7h[8:1],E4/E5/7h[8:1],7h[8:1],E4/E5/7h[8:1],2h[8:1],E4/E5/2h[8:1],2h[8:1],E4/E5/2h[8:1],
{4}7b<6V42>3V57[2:3],8h[8:1],8h[8:1],8h[8:1],1h[8:1],1h[8:1],2h[8:1],3h[8:1],
{4}1x-5[8:1],,2x-5[8:1]*-7[8:1],,1x/6h[2:1],2x,3x-8b[8:1],A3f,
{8}5b,3h[8:1],E1/A1,3h[8:1],4,3h[8:1],B1/E2,3h[8:1],5,3h[8:1],E1/A1,3h[8:1],4-8[8:1],5-7[8:1],4,5,
{8}4b,6h[8:1],E1/A8,6h[8:1],5,6h[8:1],B8/E8,6h[8:1],4,6h[8:1],E1/A8,6h[8:1],1-5[8:1],2-4[8:1],1,2,
{8}7bp3[8:1],2,1,1,8>5[4:1],5,6,7,8bp4[8:1],8,3,2,1>6[4:1],6,7,8,
{16}1b,8,7,6,5/3,2,1,8,
{32}5b,4,3,2,1,8,7,6,5-3-6-2-7-1[2:1],4,3,2,1,8,7,6,
{8}5h[4:1],,,,4-8[8:1],1bx,A2/E3f/A3,,
{24}6b-1[8:1],,,2,,,3/6,,,4,,4,8V24[8:1],,,7,,,6h[8:1]/8,,,,,,
{24}5-1[8:1],,,4,,,3/5,,,2,,2,8V64[8:1],,,1,,,2-6b[8:1]/8,,,,,,
{24}1b/2b,,,8,,,5-8[8:1]/7,,,3,,3,5V31[8:1],,,4,,,5/7xh[8:1],,,,,,
{24}8bw4b[8:1],,,,,,8b,,,,,,2b,6,2,6,2,6,2b,6,2,6,2,6,
{24}1b<6[8:1],,,2,,,1/3,,,2,,2,5V31[8:1],,,6,,,7/5,,,8,,,
{24}7-3[8:1],,,6,,,4/7,,,2,,2,4V68[8:1],,,3,,,2/4,,,1,,,
{24}2b,,,,,,6,,3,4,,3,7,,4,5,,4,8,,5,6,,5,
{8}Chf[4:3]/B8/B7,,4,,2-6b[8:1],,2b,,
{24}8b-5[8:1],,,1,,,2/8,,,3,,3,4-7[8:1],,,3,,,2/4,,,1,,1,
{24}8-5[8:1],,,1,,,2/8,,,3,,3,2h[8:1]/4h[8:1],,,,,,5h[8:1]/7h[8:1],,,,,,
{24}8v5b[8:1],,,1,,,2/8,,,3,,3,4v7b[8:1],,,3,,,2/4,,,1,,1,
{24}8bw4b[8:1],,,,,,8b,,,,,,2b,6,2,6,2,6,2,6,2,6,2,6,
{24}1b-4[8:1],,,8,,,7/1,,,6,,6,5-2[8:1],,,6,,,7/5,,,8,,8,
{24}1-4[8:1],,,8,,,7/1,,,6,,6,7h[8:1]/5h[8:1],,,,,,4h[8:1]/2h[8:1],,,,,,
{24}1b/8b,,,,,,3,,6,5,,6,2,,5,4,,5,1,,4,3,,4,
{8}Chf[4:3]/B1/B2,,8,,7-3b[8:1],,7b,,
{24}1b-6[8:1]/8b,,,,2,,
{16}1,,4,3,
{24}2-5[8:1],,,,4,,
{16}2,,6,7,
{8}8V64[8:1],4-7[8:1],8,3,2-6[8:1],,2b,
{16}1,8,
{24}7>2[8:1],,,,5,,
{16}7,,3,4,
{24}5-2[8:1],,,,1,,
{16}5,,7,6,
{8}5b<8[8:1],4,3b/5bV31[8:1],4,5b,8,7/B1/B2,6,
{24}8b-3[8:1]/5b,,,,7,,
{16}8,,5,6,
{24}7-4[8:1],,,,5,,
{16}7,,3,2,
{8}1V35[8:1],5-2[8:1],1,6,7-3[8:1],8-4[8:1],7b,8,
{24}6v1[8:1],,,,2,,
{16}6,,3,4,
{24}5-3>2[8:1],,,,8,,
{16}5,,8,7,
{8}6b-4[8:1],3,2b,1,8bh[8:1]/4h[8:1],,
{32}1b/5b,2b/6b,3b/7b,4b/8b,,,,,
{24}8-3[8:1]/1,,,,7,,
{16}8,,5,6,
{24}7-4[8:1],,,,5,,
{16}7,,3,2,
{8}1V35[8:1],5-2[8:1],1,6,7-3[8:1],,7b,
{16}8,1,
{24}2<7[8:1],,,,4,,
{16}2,,6,5,
{24}4-7[8:1],,,,8,,
{16}4,,2,3,
{8}4>1[8:1],5,6/4V68[8:1],5,4,1,2/B8/B7,3,
{24}1b-6[8:1]/4b,,,,2,,
{16}1,,4,3,
{24}2-5[8:1],,,,4,,
{16}2,,6,7,
{8}8bV64[8:1],4-7[8:1],8,3,2-6[8:1],1-5[8:1],2,1,
{24}3b,,3,1,,1,8,,8,6,,6,
{32}2,3,4,5,6,7,8,1,2,3,4,5,6,7,8,1,
{4}2>5[8:1]/5<8[8:1],2/5-1[8:1],8w4b[8:1],8b/Cf,
{16}7h[8:1]/Ch[8:1],,,,1-5[8:1]/8,,7,7,1-3[8:1],,6,6,1,,5,5h[8:1],
{32}E3,B3,B4,,
{16}7s3[4:1],7,2,,3s7[4:1],,1xh[8:1],,,,1xh[8:1],,,,
{16}Ch[8:1]/E8/B7/E3/B3,,,,2/8z4[4:1],,2,3,4z8[4:1],,3xh[16:1],,,,3xh[16:1],,
{16}2-6[8:1],,6z2[16:3],6,2,,,,7xh[16:1],,7xh[16:1],,8-3-8[4:1]*-5-8[4:1],,2/6,,
{16}8<2[4:1],,,,,,1h[16:1],,8V24[8:1],,5h[16:1]/7h[16:1],,8,,6,6,
{16}7-4[8:1],,4-8[8:1]/6h[16:1],,7/3h[8:1],,,,1-6[8:1],,2v4b[8:1]/7h[16:1],,1,,,,
{16}Ch[8:1]/B8/B7,,,,3/8-6-8[4:1],,2,2,8-4-8[4:1],,1h[16:1],,,,2h[16:1],,
{4}3h[4:3],7,5-1b[8:1],5,
{32}2/8,3/7,4/6,5h[32:5],,,,,A8/E1f/A1,,,,
{8}2x-4[8:1],5,2x-8[8:1],7,2x-5[8:1],6,2x-6[8:1],8-3b[8:1],2x,
{48}8-4b[8:1],,,,,,,,,,,,8,E1,B1,B2,E3,,,,,,,,
{8}6,7x-1[8:1],2,7x-5[8:1],4,7x-1[8:1],2,7x-4[8:1],3,7x-3[8:1],1-6b[8:1],7x,
{48}1-5b[8:1],,,,,,,,,,,,1,E1,B8,B7,E7,,,,,,,,
{8}2,3x-5[8:1],6,3x-1[8:1],8,3x-5[8:1],6,3x-8[8:1],7,3x-7[8:1],5-2b[8:1],3x,
{48}5-1b[8:1],,,,,,,,,,,,5,E5,B4,B3,E3,,,,,,,,
{8}7,6x-4[8:1],3,6x-8[8:1],1,6x-4[8:1],3q6[2:1],6x,3b,,7b,,1b<6[8:1]*>4[8:1],,,,
{4}5bq8[2:3]*qq2[2:3],,,,,,,,1qq6[2:3]*q4[2:3],,,,,,,,1<5[2:1]*>5[2:1],,,,4V25[2:1]/6V85[2:1],,,,1<5[2:1]/3v5[2:1],,,,
{8}5h[8:1]/6h[8:1],,3h[8:1]/4h[8:1],,1h[8:1]/2h[8:1],,
{16}2/1>5[4:1],8,7,6,1b/5bV31[4:1],,,,1V35[4:1],8,7,6,5V38[4:1],,,,1,8,7,6,
{16}5b<1[4:1],,,,1V75[4:1],2,3,4,5V71[4:1],,,,1,2,3,4,
{16}5b>1[4:1],,,,5/8,7,6,5,4bV28b[4:1],,,,4/7,6,5,4,3bp6[4:1],,,,6,5,4,3,2b<5b[4:1],,,,4,3,2,1,
{8}8h[16:1],8h[16:1],8h[16:1],8h[16:1],8h[16:1]/4h[16:1],8h[16:1]/4h[16:1],8h[16:1]/4h[16:1],8h[16:1]/4h[16:1],
{8}5h[16:1]/8h[16:1],5h[16:1]/8h[16:1],6h[16:1]/8h[16:1],6h[16:1]/8h[16:1],7h[16:1]/8h[16:1],7h[16:1]/8h[16:1],7h[16:1]/8h[16:1],7h[16:1]/8h[16:1],
{16}3,5,4,6,5,7,1,8,
{24}2,3,4,5h[8:1],,,
{32}6,7,8,1,2,3,4,5,
{4}6bh[2:3]/1x,,2x,,1x,2x,
{8}3xv6[8:1]*-8[8:1],B7,Cf/E1,,
{24}1bx-6[8:1]/7bx,,,2,,2,1,,,
{16}3,2,1v4[8:1],,
{24}5,,5,1,,,
{16}7,6,5<7[8:1],,2-5[8:1],,5>2[8:1],,2<8[8:1],,8-4[8:1],7,6,5,4b,,,,
{24}8-3[8:1]/2,,,7,,7,8,,,
{16}6,7,8v5[8:1],,
{24}4,,4,8,,,
{16}4,3,2b-6[8:1],,4,,2b-8[8:1],,8V26[4:1]*V24[4:1],,2b,,,,Cf,,,,
{24}1bx<6[8:1]/7bx,,,2,,2,1,,,
{16}4,3,2-6[8:1],,
{24}5,,5,2,,,
{16}7,8,1-6[8:1],,5-1[8:1],,1>6[4:1],,5,,6,7,8,1,2,3,4,5,
{24}1/6v1[8:1],,,7,,5,6,,,
{16}3,4,
{24}5-3>2[8:1],,,8,,8,5,,,
{16}7,6,5b-8[8:1],,1,,5b/2b,,3,,4b/1b>4b[8:1],,2,,
{32}8b/D3f,7b,6b,5b,,,,,
{24}8bx-3[8:1]/2bx,,,7,,7,8,,,
{16}6,7,8v5[8:1],,
{24}4,,4,8,,,
{16}2,3,4>2[8:1],,7-4[8:1],,4<7[8:1],,7>1[8:1],,1-5[8:1],2,3,4,5b,,,,
{24}1bx-6[8:1]/7bx,,,2,,2,1,,,
{16}3,2,1v4[8:1],,
{24}5,,5,1,,,
{16}6,7,8b-4[8:1],,3,,2b/8b-3[8:1],,1,,
{12}8b/5b,6,7,
{24}4/8,5,6,7,8,1,
{24}4b/2bv5[8:1],,,3,,1,2,,,
{16}8,7,
{24}6v1[8:1],,,4,,4,6,,,
{16}4,3,2/8-3[8:1],,1,,8/6,,5,,2/4h[8:1],1,8,7,
{24}3/6,2,1,8,7,6,
{24}5bp1[8:1],,,4,,7,5,,,
{16}7,6,5q1[8:1],,
{24}3,,3,
{16}5,,2,3,
{8}4b/8b-4[8:1],7<5[8:1],8b,7,2b>5[8:1]*>5[8:1],1v6[8:1]*v6[8:1],2b,1,4b-8b[8:1],5-7b[8:1],4b,5,
{32}2b,3,4,5,6,7,8,1,2h[8:1]/4w8[8:1]*w8[8:1],,,,,,,,
{4}E4/E5,,,,,,,,
E
