&title=Art for Last
&artist=ARForest
&first=0.543
&des=卡古亚
&des_6=卡古亚
&lv_6=14+
&inote_6=(195){4}3/6,{8}4,4,4,{16}4,5,{8}4,4,
4,{16}4,5,{8}4,4,4,{16}4,5,4,5,{8}4,
{4}4,{8}4,4,4,{16}4,5,{8}4,4,
4,{16}4,5,{8}4,4,4,4,4,{16}4,5,
{4}4,{8}4,4,4,{16}4,5,{8}4,4,
4,{16}4,5,{8}4,4,4,{16}4,5,4,5,{8}4,
{4}4,{8}4,4,4,{16}4,5,{8}4,4,
4,{16}4,5,{8}4,4,4,4,{4}4>5[2:7],
{8}8,7,,7,{4}6,{8}6,5,
,5,{4}6,{8}6,7,{4}8<5[2:3],
{8}1,2,,2,{4}3,{8}3,4,
,4,{4}3,{8}3,2,{4}1>8[2:7],
{8}5,6,,6,{4}7,{8}7,8,
,8,{4}7,{8}7,6,{4}5<8[2:3],
{8}4,3,,3,{4}2,{8}2,1,
,1,{4}2,{8}2,3,4,{16}8/3,7/2,
{4}1/6,{8}6,8h[4:1],,7,{4}1h[4:1],
{8}8,2h[4:1],,1,{16}3,4,{8}3,{4}2/5,
3/7,{8}3,1h[4:1],,2,{4}8h[4:1],
{8}1,7h[4:1],,8,{16}6,5,{8}6,{4}7/4,
8/2,{8}7,5h[4:1],,6,{4}4h[4:1],
{8}5,3h[4:1],,4,{16}2,1,{8}2,{4}3/8,
2/6,{8}2,4h[4:1],,3,{4}5h[4:1],
{8}4,6h[4:1],,5,{16}6,7,8,1,7/2,8,1,2,
{8}8,7,6,2,3,4,{16}6,5,{8}6,
4/7,{16}3,4,{8}3,2/5,{16}1,8,7,6,5/8,7,6,5,
{8}8,7,6,2,3,4,{16}6,5,{8}6,
4/7,{16}3,4,{8}3,2/5,{16}6,7,8,1,2/7,8,1,2,
{8}8,1,2,7,6,5,{16}3,4,{8}3,
5/2,{16}6,5,{8}6,7/4,{16}3,2,1,8,7/2,1,8,7,
{8}1,2,3,8,7,6,{24}4,5,4,5,4,5,
{8}3,{16}6,2,{8}7,2,7,2,{16}1/8,1/8,1/8,8/1p8[16:25],
{1},,{8}6b,
2,8,4,{16}6,5,6,5,{8}7,1,
3,7,1,5,{16}2,4,3,4,{8}2,8,
6,2,8,4,{16}6,5,6,5,{8}7,1,
3,7,1,5,{16}2,4,3,4,3,5,4,5,
{8}4,{16}6,5,{8}6,{16}3,4,3,4,{8}3,{16}6,5,{8}6,
7,{16}3,4,{8}3,{16}6,5,6,5,{8}6,{16}3,4,{8}3,
2,{16}7,8,{8}7,{16}2,1,2,1,{8}2,{16}7,8,{8}7,
6,{16}2,1,{8}2,{16}7,8,7,8,{8}6,{16}8,1,2,3,
{8}7/4,{16}6,5,{8}6,{16}3,4,2,4,{8}3,{16}6,5,{8}6,
2/5,{16}3,4,{8}3,{16}6,5,7,5,{8}6,{16}3,4,{8}3,
4/7,{16}6,5,{8}6,{16}3,4,2,4,{8}3,{16}6,5,{8}6,
{16}3,4,2,5,1,6,8,7,2,1,3,8,4,7,5,6,
4,5,4,5,{8}3,{16}5,4,5,4,{8}6,{16}1,8,{8}1,
{16}5,4,5,4,{8}6,{16}4,5,4,5,{8}3,{16}8,1,{8}8,
{16}2,1,2,1,{8}3,{16}7,8,7,8,{8}6,{16}1,6,2,5,
3,4,3,2,{8}3,{16}5,4,5,6,{8}5,{16}6,7,8,1,
{1}2p8[1:7]/7q1[1:7],
,,,,,,{4},,{8}1/8,
1/8,{16},1/8,{8}1/8,
2,{16}2,4,{8}3,{16}6,5,{8}7,{16}1,8,2,7,{8}3,
8,{16}7,5,{8}6,{16}3,4,{8}2,{16}8,1,7,2,{8}6,
8,{16}2,1,{8}3,{16}6,5,{8}7,{16}3,4,2,5,{8}1,
2,{16}7,8,{8}6,{16}3,4,2,6,5,7,3,4,{8}2,
7,{16}7,5,{8}6,{16}3,4,{8}2,{16}8,1,7,2,{8}6,
1,{16}2,4,{8}3,{16}6,5,{8}7,{16}1,8,2,7,{8}3,
1,{16}7,8,{8}6,{16}3,4,{8}2,{16}6,5,7,4,{8}8,
7,{16}2,1,{8}3,{16}6,5,7,3,4,2,6,5,{8}7,
2,{16}2,4,{8}3,{16}6,5,{8}7,{16}7/3,8,1,2,{8}3,
8,{16}7,5,{8}6,{16}3,4,{8}2,{16}2/6,1,8,7,{8}6,
8,{16}2,1,{8}3,{16}6,5,{8}7,{16}7/3,8,1,2,{8}3,
1,{16}7,8,{8}6,{16}3,4,2,1,8,7,6,5,4,3,
{8}7,{16}7,5,{8}6,{16}3,4,{8}2,{16}2/6,1,8,7,{8}6,
1,{16}2,4,{8}3,{16}6,5,{8}7,{16}7/3,8,1,2,{8}3,
1,{16}7,8,{8}6,{16}3,4,{8}2,{16}2/6,1,8,7,{8}6,
8,{16}2,1,{8}3,{16}6,5,7,8,1,2,3,4,5,6,
{8}2,{16}3,4,{8}3,2,{16}8,1,7,2,6,3,5,4,
{8}7,{16}6,5,{8}6,7,{16}1,8,2,7,3,6,4,5,
{8}2,{16}3,4,{8}3,2,{16}8,1,7,2,6,3,5,4,
8,7,1,2,7,6,2,3,6,5,3,4,5,3,5,3,
{8}7,{16}6,5,{8}6,7,{16}1,8,2,7,3,6,4,5,
{8}2,{16}3,4,{8}3,2,{16}8,1,7,2,6,3,5,4,
{8}7,{16}6,5,{8}6,7,{16}1,8,2,7,3,6,4,5,
1,2,8,7,2,3,7,6,3,4,6,5,4,6,4,6,
{8}2,{16}3,4,{8}3,2/5,{16}1,8,7,6,5/1,4/8,3/7,2/6,
{8}1/5,{16}6,5,{8}6,7/4,{16}8,1,2,3,4/8,5/1,6/2,7/3,
{8}4/8,{16}3,4,{8}3,2/5,{16}1,8,7,6,5/1,4/8,3/7,2/6,
1/5,8,7,6,8/5,7,6,5,{32}1,2,3,4,1,8,7,6,1,2,3,4,1,8,7,6,
{8}5/3,{16}6,5,{8}6,7/4,{16}8,1,2,3,4/8,5/1,6/2,7/3,
{8}8/4,{16}3,4,{8}3,2/5,{16}1,8,7,6,5/1,4/8,3/7,2/6,
{8}5/1,{16}6,5,{8}6,7/4,{16}8,1,2,3,4/8,5/1,6/2,7/3,
8/4,1,2,3,1/4,2,3,4,2,3,4,5,{32}2,3,4,5,2,3,4,5,
{1}2/6,
E
