&title=little explorer
&artist=原田ひとみ
&first=-0.06
&des=They were only two, on the planet.
&lv_5=13+
&inote_5=(140)
{1},,
{8}3>6[2:1],,,,,,,,5p4[2:1],,,,3,,,,6<3[2:1],,,,,,,,3>1-5[2:1]/5<7-3[2:1],,,,,,,,
{8}3h[4:1],5,6,8h[8:3],2-6[8:1],,,,5h[4:1],3,2,1,6-2[8:1]/2-5[8:1],,2/6,,
{8}8b<4[2:1]/4b>8[2:1],,,,,,,,1pp4[2:1]/5pp8[2:1],,,,,,,,
{8}2-5[16:2],,8,,6h[8:1],1,6,
{16}3,5,3-5-2[4:1],,,,,,7qq1[4:1],,,,1,,2>8[8:4],,,,2x/4xh[4:1],,,,,,,,1,,2,,3,,
{16}7,5,8b<5[8:1],,,1,8,,3,,2>5[8:1]/6<1[8:1],,,,,,,,
{8}4,5/6,7,8/2,3-7[16:2],,7,,5,3/4,2,1/7,8w4[8:1],,8,,
{8}1pp8[2:1]/5pp4[2:1],,,,,,,,
{16}2/5,,3,4,3,,5,,2,,5/6,,8,,3/4,,5p2[2:1]/6pp1[2:1],,5/6,,,,,,,,,,,,,,
{8}4<3[2:1]*>5[2:1],,,,,,,,
{4}C,,,,,A1,A2,A3,E1/E7,
{8},E3/E5,,,,,,,A5,,A6,,A7,,E1,,,E7,4>5[4:9],
{1},,
{8},,,,,,,E7,,E8,,E1/4qq4[8:6],,,,,,,,,,E2,,E3,,E4,,E2/A2/8q1[8:8],,,B3/A3,,,,,,,,,,,
{8}E7/E3,,E5,,,,2q3[4:3]/7p6[4:3],,,,,,,,,
{96},,,,,,,,,,,
{16},6h[4:1],,,,5h[8:5],,,,,,,,,,
{12}6h[12:2],,
{16}4h[16:3],,,5h[8:2],
{96},,,
{16},,,,,,2,4,3,5,4,6,5,7,
{8}4,4h[8:5],5,,6,,7,,5,5h[8:5],4,,3,,2,,1,1p4[8:3],8,,7,,6,,5,5p8[8:3],4,
,3,,2,,
{8}5/6,5/6h[4:1],,4,3-1[8:1],,5,,3/4,3h[4:1]/4,,5,6-8[8:1],,4,,
{16}3h[4:1],,1,,4h[4:1],,8,,2,5,3,,1/8,,,,6h[4:1],,8,,5h[4:1],,1,,7,4,6,,1/8,,,,
{16}3h[4:1],,1,,5h[4:1],,8,,2,6,4,,1/8,,,,6h[4:1],,8,,4h[4:1],,1,,7,3,5,,1/8,,,,
{16}2h[4:1],,5,,4h[4:1],,1,,8-4[8:1],,5,,8,,,,
{16}7h[4:1],,4,,5h[4:1],,8,,1w5[8:1],,4,,1,,,,
{8}2b-5[8:1],,7b-4[8:1]/2b,,1b-5[8:1]/7b,,8b-4[8:1]/1b,,3b-7[8:1]/8b,,5b-1[8:1]/3b,,4bw8[8:1]/5b,,4b,,
{16}2/5,,3,4,3,,7,,2/5,,3,4,3,,7,,3>8[8:1],,8-4[8:1],,4<7[8:1],,,,1w5[8:1],,,,1b,,,,
{16}3/7,,6,4,5,,8,,2/6,,3,5,4>5[4:1],,1,,4,,,,,,4/8,,7-4[8:1]/3-8[8:1],,,,7b/3b,,,,
{16}6,,2,,3/5,,2,4,3-7[8:1],5,1,,3,,,,2,,8,,4/6,,7,5,6-2[8:1],4,8,,6,,,,
{16}8h[4:1],,,,4>5[8:3],,8,,4b,,,,,,,,7h[16:3],,,4,6,,2,,
8-3[8:1]/7-4[8:1],,,,7/8,,,,
{16}2/6,,3,7,4,,1,,3/7,,6,2,5,,8,,6-1[8:1],,1-5[8:1],,5-2[8:1],,,,8w4[8:1],,,,8b,
,,,
{16}1hb[4:3]/8hb[4:3],,,,,,,,,,,,,,,,
{32}8/2b,3,4,,,,1/7b,6,5,,,,8/3b,4,5,,1x/6xb,5,4,3,2,1,8,7,6/2b,,,,,,,,
{16}3/4,,8,,5/6,,2,1,2-6[8:1],1,3,,2b/6,,,,7/8,,4,,1/2,,6,5,6-2[8:1],5,7,,6b/2,,,,
{32}1bpp4[2:1]/8bqq5[2:1],2/7,6/3,5/4,,,,,,,,,,,,,,,,,,,,,,,,,,,,,
{16}2,4,2,4,3,5,3,5,4,6,4,6,5,7,5,7,
{16}4,3,2,1/8,7,6,5,3,1-4[8:1],,5-1[8:1],,1,,5,,
{48}2,,,,,7x/8x,,,6x,,,,,,2/1,,,3x,,,,,,,7/8,,,5x,,,,,,2/1,,,4x,,,,,,,2bx/8bx,,,,,
{16}3,7,3,7,3,7,3,7,3,7,4,8,4,8,4,8,5,1,5,1,5,1,5,1,6,2,6,2,6,2,6,2,6,2b-6[16:11]b,,
