&title=睡蕉之歌
&artist=HOYO-MiX
&first=0
&des=Revo Bleug
&lv_5=13+
&inote_5=(180)
{4},,,,,,1b<4[8:1]*p4[8:1],,
{8}7^4[8:1],,8,1,2>5[8:1]*>5[8:1],,1b,8,7q3<7[4:1],,,1b,1b<4[8:1]*p4[8:1],,,,
2^5[8:1],,1,8,7<4[8:1],,3qq3pp3[2:1],3,,,,1b,1b<4[8:1]*p4[8:1],,,,
8<4[8:1],,8/4,2,8>4[8:1]*>4[8:1],,8b-2-6-4[4:1]/5b,7,,,,1b,1b<4[8:1]*p4[8:1],,,,
3^8[8:1],3,6^1[8:1],6,4p7[8:1],4,5v3>7[8:3],5,,,,4b,4b<1[8:1]*q1[8:1],,,,
4-2[8:1],,8,8b,8/4-2[8:1]
,,8,8,8/4-2[8:1],,5pp1[4:1],,4b-2[8:1]*-2[8:1],,,,
6-3[8:1],,1-4[8:1],,5-8[8:1],,6-3[8:1],,2q3[4:1],,3x<8[4:1]*q8[4:1],,,,,,
2^5[8:1],,1,8,7<4[8:1]*<4[8:1],,8b,1,2p6>2[4:1],,,8b,8b>5[8:1]*q5[8:1],,,,
7^4[8:1],,8,1,2>5[8:1],,6pp6qq6[2:1],6,,,,8b,8b>5[8:1]*q5[8:1],,,,
1>4[8:1],,1/5,7,8<5[8:1]*<5[8:1],,8b-2-6-4[4:1]/4b,2,,,,8b,8b>5[8:1]*q5[8:1],,,,
6^1[8:1],6,3^8[8:1],3,5q2[8:1],5,4v2<6[8:3],4,,,,5b,5b>8[8:1]*p8[8:1],,,,
5-7[8:1],,1,1b,1/5-7[8:1]
,,1,1,1/5-7[8:1],,4qq8[4:1],,5b-7[8:1]*-7[8:1],,,,
3-6[8:1],,8-5[8:1],,4-1[8:1],,3-6[8:1],,7p6[4:1],,6x>1[4:1]*p1[4:1],,,,,,
6^1[8:1],,65,4,3>8[8:1]*>8[8:1],,3b/4b,5,
A7/B8/B1f/B2/E3/A3/B7/C/B3/B6/B5/B4/E8/E7/E6/E5/E4/D7/A6/D6/A5/D5/A4/D4,
,8,1b,1b,,A1/D1/A8/D8/A7/D7f/A6/D6/A5/D5/A4/E1/B8/E8/B7/E7/B6/E6/B5/E5,,
3^8[8:1],,34,5,6<1[8:1],,65,4,
A3/A5/E6/B6/C/B3/A1/E1/B8/B1/B2/E2/E3/E4/E5/B4/B5,
8x/7x,6x/5x,2x/1x,3x/4x,7x/6x,1x/8x,,
8<4[8:1]/Cf,,8/4,2,8>4[8:1]*>4[8:1],,8b-2-6-4[4:1]/4b,6,8,,,1b,1b,,
A1/D1/A8/D8/A7/D7f/A6/D6/A5/D5/A4/E1/B8/E8/B7/E7/B6/E6/B5/E5,,
3^8[8:1],3,6^1[8:1],6,4p7[8:1],4,5-2[8:1],5-8[8:1],5-1-5[4:1],5,5w1[8:1],
,,,A1/D1/A8/D8/A7/D7f/A6/D6/A5/D5/A4/E1/B8/E8/B7/E7/B6/E6/B5/E5,,
5-3[8:1],,1,1b,1/5-3[8:1]
,,1,1,1/5-3[8:1],,6pp2[4:1],,5b-3[8:1]*-3[8:1],,,,
6-3[8:1]/1,,6/1-4[8:1],,1/5-8[8:1],,5/6,,
3-8[8:1],7-2[8:1],3-6[8:1],7-4[8:1],3<1[4:1]*<1[4:1],7,3,,
3^8[8:1],,34,5,6<1[8:1]*<1[8:1],,6b/5b,4,
A2/B1/B8f/B7/E7/A6/B2/C/B6/B3/B4/B5/E2/E3/E4/E5/E6/D3/A3/D4/A4/D5/A5/D6,
,1,8b,8b,,A8/D1/A1/D2/A2/D3f/A3/D4/A4/D5/A5/E1/B1/E2/B2/E3/B3/E4/B4/E5,,
6^1[8:1],,65,4,3>8[8:1],,34,5,
A6/A4/E4/B3/C/B6/A8/E1/B1/B8/B7/E8/E7/E6/E5/B5/B4,
1x/2x,3x/4x,7x/8x,6x/5x,2x/3x,8x/1x,,
1>4[8:1]/Cf,,1/5,7,8<5[8:1]*<5[8:1],,8b-2-6-4[4:1]/4b,3,8,,,8b,8b,,
A8/D1/A1/D2/A2/D3f/A3/D4/A4/D5/A5/E1/B1/E2/B2/E3/B3/E4/B4/E5,,
6^1[8:1],6,3^8[8:1],3,5q2[8:1],5,4-7[8:1],4-1[8:1],4-8-4[4:1],4,4w8[8:1],
,,,A8/D1/A1/D2/A2/D3f/A3/D4/A4/D5/A5/E1/B1/E2/B2/E3/B3/E4/B4/E5,,
&inote_6=(180){8}6-3[8:1],,1-4[8:1],,5-8[8:1],,6-3[8:1],,2q3[4:1],,3<1[4:1],
