&title=紅蓮夜叉
&artist=葉月ゆら
&first=0
&des=おにねこ
&des_5=NekoMuseigen
&wholebpm=149
&MusicStart=65
&MusicEnd=80
&lv_5=13+
&inote_5=(149)
{1},
{4}
1h[4:4],,,,5h[4:4],,,,2h[4:2],,
6h[4:2],,3h[4:1],7h[4:1],4-8[8:1],8b,
{16}
57,,6,5h[16:3],,,7,,57,,6,4h[16:3],,,8,,
48,,2,,47,,1,,64,,8,4,6,4,7,4,
8h[4:1],,3,,3,,3,4,2/5h[8:3],,2,,2,,2,,
3/5<8[8:1],,3,,35,,3,,12,,{24}8,7,6,{16}51,,26,,
37,,4,5h[16:3],,,2,,52,,3,4h[16:3],,,1,,
41,,7,,42,,8,,34,,1,5,3,5,2,5,
1h[4:1],,6,,6,,6,5,7/4h[4:1],,7,,7,,74,,
1b/2b,,,6b/7b,,,3b/4b,,{24}1-5[8:1],8,1,{16}8,,,,,,
6b/4b,,6b/4b-8[8:1],,,3b,,,4bw8[8:1],,,,4b,,,,
2pp5[8:4]/5,,,,6,,6,,6,,,,7h[4:1],,,,
4,,6,5,6,,74,,25,,1h[4:1],,{24}7,6,5,{16}4,,
4/1pp4[4:2],,,,5,,5,,5,,,,6h[4:1],,,,
5>2[8:2],,,,2v5[8:2],,,,5p1[16:3],,,,7,,,,
8qq3[8:4],,,,2,,2,,2,,,,1h[16:6],,,,
5,,6,,74,,3,,25,,6h[4:1],,{24}1,2,3,{16}4,,
4/6pp4[8:4],,,,3,,3,,3,,,,2h[4:1],,,,
5,,3,,47,,8,,26,5,4,3,2,1,8,7,
6b/2bV48[8:2],,,,8>4[16:4],,7,,6h[8:1],,,,6,,6,,
74,,6,5,6,,74,,6<1[8:1]/3,,45,,{24}1,2,3,{16}4,,
5>2[8:1],,,,8,,7,,6<8[8:1],,,,4>1[4:1],,,,
1p4[4:1],,,,4p7[4:1],,,,6,,6,,5,,,,
3/7V51[8:2],,,,1<5[16:4],,2,,3h[8:1],,,,3,,3,,
25,,3,,3,,25,,3>8[8:1]/6,,54,,{24}8,7,6,{16}5,,
4<7[16:2],,,,8,,1,,2>4[8:1],,,,6h[4:1],,,,
5,,7,,81,,2,,34,,5,5,4,,8-6[8:1],,
1v2[16:3],,,,,,4,,5,,6,,7>2[16:3],,3,,3h[8:3],,,,,,4,3,4,,1,1,1,,8-6[8:1],,
2v3[16:3],,,,,,5,,5,,6,,7-1[8:1],,2,,2h[8:3],,
,,,,4,2,4,,1b,,8b,,2-4[8:1],,
1<6[4:1],,,,,,5,,4,,3,,2<7[16:3],,6,,
6h[8:3],,,,,,5,6,5,,8b,8b,8b,,71,,
{8}
7h[8:1]/1,2,3h[8:1]/8,7,6h[8:1]/2,3,4h[8:1]/7,6,
5h[8:1]/3,2,6/4h[8:1],7,8h[8:1]/3,2,6/1h[8:1],7,
{16}
8h[8:3]/2,,,4,,,6,,1h[8:3]/7,,,5,,,3,,
13,,42,,35,,64,,57,,86,,7/1h[8:3],,7,,,,
5,,1,,7,,3,,{24}5,4,5,{16}6b/3b,,,,
18,,2-5[8:1],1,,1,2,,8,,7-4[8:1],8,,8,7,,
1-4[8:1],,6-2[8:1],,1-5[8:1],,6,,1,,7,7,,,1q5[8:1],,1,,
{32}5b,6,7,8,{16}1,,
2>6[8:1],,2,,{32}6b,7,8,1,{16}2,,48,,
2,6,4,8,3-7[8:1],5,1,7,3b>8[8:1]*<6[8:1],,,,3b,,,,
45,,6-1[8:1],5,,5,6,,4,,3-8[8:1],4,,4,3,,
5-1[8:1],,2-6[8:1],,5-8[8:1],,2,,5,,3,3,,,5,5,
6/4,,,4/7,,,48,,3h[8:1],,7h[8:1],,2h[8:1],,6h[8:3],,
1-3[8:1],,1-7[8:1],,1-5[8:1],,,,,,,,46,,,,
2b/8b,,,7b/5b,,,3b/4b,,2-6[8:1],,13,,,,,,
{4}4h[4:4],6,6,6,8h[4:4],2,2,2,3h[4:2],6,7h[4:2],3,2h[4:1],6h[4:1],1-5[8:1],1b/5b,
{16}
46,,3,5,,5,3,4,2,,2,8,,17,,
28,,28,,7,7,8,6,1,5,,5,3,,3,5,4,6h[8:1],,
5,,47,,74,,3h[8:1],,4,25,,25,,,
7,4,5,4,7,4,5,4,7v2[8:1],,1,1,,,,,
3,4,3,2,3-1[8:1],4,3,2,3-7[8:1]*-5[8:1],,,,,,,,
6,5,6,7,6-1[8:1],5,6,7,6v3[8:1]*-4[8:1],,,,,,,,
2h[8:1],,1,,83,,72,,6h[8:1]/1,,8,6,,6,8,7,1h[8:1],,
8,1,7,5,6h[8:1],,5,6,3,4,1,,
6-8[8:1],,
5v2[16:3],,,,,,1,,8,,7,,6>3[16:3],,2,,2h[8:3],,,,,,1,2,1,,5,5,5,,4-2[8:1],,
8v5[16:3],,,,,,1,,1,,2,,3-6[8:1],,7,,7h[8:3],,
,,,,8,7,8,,5b,,4b,,6-8[8:1],,
2>5[4:1],,,,,,1,,8,,7,,6>3[16:3],,2,,
2h[8:3],,,,,,8,2,8,,4b,4b,4b,,35,,
{8}
3h[8:1]/5,6,7h[8:1]/4,3,2h[8:1]/6,7,8h[8:1]/3,2,
1h[8:1]/7,6,2/8h[8:1],3,4h[8:1]/7,6,2/5h[8:1],3,
{16}
4h[8:3]/6,,,8,,,2,,5h[8:3]/3,,,1,,,7,,
57,,86,,71,,28,,13,,42,,3/5h[8:3],,3,,,,
1,,5,,3,,7,,{24}1,8,1,{16}2b/7b,,,,
53,,6<1[8:1],4,,4,6,,3,,2>5[8:1],8,,8,2,,
7-3[8:1],,2-6[8:1],,7-4[8:1],,2,,7,,1,1,,,5q1[8:1],,5,,
{32}1b,2,3,4,{16}5,,
6<2[8:1],,6,,{32}2b,3,4,5,{16}6,,84,,
6,2,8,4,7-3[8:1],1,5,3,7bw3[8:1],,,,7b,,,,
8/1-4[8:1],,6,6,,5,5,,4-7[8:1],,3,3,,2,2,,
1-5[8:1],,8,,7-3[8:1]/1,,8,,7/4w8[8:1],,,,4,,,,
5h[8:1]/1h[8:1],,,6h[8:1]/2h[8:1],,,73,,8h[8:1],,4h[8:1],,7h[8:1],,3h[8:3],,
5-7[8:1],,5v2[8:1],,5q1[8:1],,,,,,,,34,,,,
6b/4b,,,3b/1b,,,7b/8b,,6h[8:3],,3h[8:3],,,,,,
{8}5-7[8:1],5-2[8:1],5-1[8:1],5-3[8:1],5-8[8:1],5qq1[8:6],,,8,,7,,
6,,5b,,
{16}
34,,2h[1024:1],,3,4,1h[1024:1],,34,,1h[1024:1],4,3,4,2h[1024:1],,
34,,2h[1024:1],,3,4,1h[1024:1],,34,,3,4,2,5,1,6,
8h[4:1],,5,,5,,5,4,6/3h[8:3],,6,,6,,6,,
7/5>2[8:1],,7,,75,,7,,61,,{24}7,8,7,{16}8,,34,,
65,,7h[1024:1],,6,5,8h[1024:1],,65,,8h[1024:1],5,6,5,7h[1024:1],,
65,,7h[1024:1],,6,5,8h[1024:1],,65,,6,5,7,4,8,3,
1h[4:1],,4,,4,,4,5,3/6h[8:3],,3,,3,,3,,
1b/2b,,,6b/7b,,,3b/4b,,{24}1-5[8:1],8,1,{16}8,,,,,,
6b/4b-8[8:1],,6b/4b,,,5b-2[16:1],,,3b-8[8:1],,,,5b-1[8:1],,,,
4bw8[8:1],,,,,,,,
{12}12,18,78,78,61,52,{4}3b/4b,,,,,,,E
