&title=海に化ける
&artist=花谱
&first=0.02
&des=Yuzuki
&clock_count=4
&lv_5=13
&inote_5=(190)
{1},
{8}
5h[4:3]/4,,7,,3,,8-4[8:1],,
2,2,5,5,3h[8:2],,4,,6,6,5,6h[8:3],,,5,,
2,2,4,4,3h[4:1],,5,,6,6,5,6,6h[4:1],,5,,
2,2,4,4,3-5[8:1],,4,,6,6,5,6^1[8:1],,,4,,2,2,4,4,3^6[8:1],,7,,8-4[8:1],1,2,3,E5,C,E1,,
2,4,3,4h[8:2],,3,4,,6,6,5,6h[8:3],,,5,,2,4,3,4h[8:2],,3,4,,6,6,5,6,6h[4:1],,5,,
2,4,3,4h[8:2],3-5[8:1],3,4,,6,6,5,6^1[8:1],,,4,,2,4,3,4,3^6[8:1],3,7,,8qq4[16:8],1,2,3,,,,1,
6h[8:3],8,8,8-5[8:1],,4,,3,2h[8:5],4,4,4pp5[16:5],,,,3,
4x,4hx[8:3],5x,5,5,5-1[8:1],,5pp1[32:17]*p2[32:17]/B5f,,,,,,,,3,
3/B8,3,3,3,3/E6,3,3,3,6/B2,6,6,6,6/B4,6,6,E1f/6,,,E7,,B5,,E4,,
{16}
C/B7/B2/E7/E3,,,,8,1,8,1,8,,2,,8-5b[8:1],,,,
8bs4[16:4],,,,6,,,,6h[8:2],,,,5,,7b-3[8:1],,,,4b-1[8:1],,,,4b-7[8:1],,,,,,2h[4:1],,,,
1,,2,,3-5[8:1],,,,7pp4[16:8],,7,,,,3h[8:3]/B2f,,,,,,,,,,5h[4:1],,,,7h[4:1],,,,
1-6[8:1],,1,,,,3,,4-8[8:1],,7,,,,6^3[8:1],,2,,1,,8,,7,,3,,2,,7,,6pp1[16:8],,
B4/E4/B3,,,,,,,,E5/B4/B5,,,,,,8b,,,,12,,12,,38,,38,,47,,47,,56,,
5b-1[8:1]/6b-1[8:1],,,,56,,,,8^5[8:1]/2,,,,2^5[8:1]/8,,,,6-2[8:1]/2,,,,4-8[8:1]/6,,,,1^6[8:1]/4,,,,1^4[8:1],,,,
1,,6,6,5,,8x,,3,3,4,,1x,,7,7,5,,8x,,2,2,4,,1bxw5b[8:1],,,,1b,,,,
7^2[8:1],,,,3,,4-1[8:1],,,,5-8[8:1],,,,2-6[8:1],,2,,1,,,,8z4[4:1],,8,,3,,3,,2,,
1h[4:1]/E6/B5/B6,,,,,,,,7h[4:1]/B3/B4/E4,,,,,,Cf,,,,18,,18,,27,,3b/6b,,,,
{8}
8-4[8:1],4,8,,,2/6,2/6,,1/5,1/5,,4^7[32:5]/8^3[32:5],,,,,
1-5[8:1],5,1,,,3/7,3/7,,4/8,4/8,,1^6[32:5]/5^2[32:5],,,,,
7-3[8:1],3,7,,,2/6,2/6,,1/5,1-7-3[32:9]/5-3-7[32:9],
,,,,,,7h[4:1],,5,5,8,8,1/2,,3/4,6b/5b,,2b/4b,,1b-4b[8:1]/8b-5b[8:1],,,,,
C
,,,,,,,,E6,,,,,,,,E1/E3,,,,,,,,,,,,,,,,B5,,,,,,,,E2,,,,,,,,E8/B4,,,,,,,,,,,,,,
6,,5h[2:1],,,,,,,,3h[2:1],,,,,,,,7h[2:1]/5,,,,,,,,2,,,,1,,,,
{24}
6,5,,,,,,,,,,,,,,,,,,,,,,,3h[2:1],,,,,,,,,,,,,,,,,,,,,,,,7h[2:1]/5,,,,,,,,,,,,,,,,,,,,,,,,
,,,,,,,,,,,,,,,,,,,,,,,,5h[2:1]/B2,,,,,,,,,,,,,,,,,,,,,,,,3h[2:1]/B7,,,,,,,,,,,,,,,,,,,,,,,,7h[2:1]/5h[2:1],,,,,,,,,,,,,,,,,,,,,,,,,,,,,,,,,,,,,,,,,,,,,,,,6,5,,,,,,,,,,,,,,,,,,,,,,,3h[2:1]/B7,,,,,,,,,,,,,,,,,,,,,,,,7h[2:1]/Ch[1:2],,,,,,,,,,,,,,,,,,,,,,,,,,,,,,,,,,,,,,,,,,,,,,,,E6,,,,,,,,,,,,,,,,,,,,,,,,E3/E4,,,,,,,,,,,,,,,,,,,,,,,E7,B6,B5,,,,,,,,,,,,,,,,,,,,,,,,,,,,,,,,,,,,,,,,,,,,,,,
E6,,,,,,,,,,,,,,,,,,,,,,,E3,E4,,,,,,,,,,,,,,,,,,,,,,,,,E7,B6,B5,,,,,,,,,,,,,,,,,,,,,,,,,,,,,,,,,
{48}
A1,D2,A2,D3,A3,D4,A4,D5,A5,D6,A6,D7,A7,D8,A8,D1,A1,D2,,,,,,,
{24}
8bx,7x,6x,5hx[8:1],,,7x,6x,5x,,,,1b,2x,3x,4hx[8:1],,,2x,3x,4x,,,,
7b,6x,5x,4hx[8:1],,,6x,5x,4x,,,,2b,3x,4x,5hx[8:1],,,3x,4x,5x,,,,
8b,7x,6x,5hx[8:1],,,7x,6x,5x,,,,1b,2x,3x,4hx[8:1],,,2x,3x,4x,,,,
7b,6x,5x,4hx[8:1],,,6x,5x,4x,,,,2b,3x,4x,5hx[8:1],,,3x,4x,5x,,,,
{8}2bx/8bx-4[8:1],,2,,2b/5b-7[8:1],,2,,8b/2b-5[8:1],,8,,8b/6xb-3[8:1],,8,,
{16}1,2,1,2,1,,83,,,,45,,,,6b-1[32:9]-5[32:10]-2[32:9]*-1[32:9]-5[32:10]b/7b,,,,,,,,,,,,,,,,,,8h[1:3],,,,,,,,B4/B3/E4,,,,,,,,B6,,,,,,,,B5/B4/E5,,,,,,,,E7/B7,,,,,,,,B2/B3/E3,,,,,,,,C,,,,,,,,B6/B5,,,,,,,,3h[1:2]/B8/E8/B7,,,,,,,,E5,,,,,,,,B1/B2,,,,,,,,B6/E7,,,,,,,,C,,,,,,,,E1/B8/B1,,,,62,,2h[8:3]/6h[8:7],,,,,,,,,,E1f,,,,,,,,
5b/3b,,,,5,,4,,5,,,,5,,,,5,,3,,5,,,,5,,,,5,,,,5,,,,5,,4,,5,,,,5,,,,5,,3,,5,,,,5,,,,5,,,,35,,,,3,,4,,3,,,,3,,,,3,,,,3,,5,,3,,,,3,,,,
{16}
5b,4,5,4,5,4,5,4,5b,4,5,4,5,4,5,4h[16:13],,,,,,,,,,,,,,,,,
8b^5[8:1]/5b^2[8:1],,,,58,,,,1h[8:2],,,,7,,2b-6[8:1],,,,5b-8b[8:1],,,,5b-2b[8:1],,,,,,7h[4:1],,,,
8,,7,,6-4[8:1],,,,2qq7[16:8],,2,,,,6h[8:3]/B7f,,,,,,,,,,1h[4:1],,,,3h[4:1],,,,
5-1[8:1],,5,,,,6,,7-4[8:1],,3,,,,2b^7b[8:1],,,,,,6,,5,,4,,3,,7,,6pp2[16:8],,
B4/E4/B3,,,,,,,,E5/B5/B4,,,,,,1b,,,,87,,87,,61,,61,,52,,52,,43,,
4bxw8[8:1],,,,4,,,,2^5[8:1]/6x,,,,8^5[8:1]/2,,,,1-5[8:1]/8,,,,6-2[8:1]/1,,,,4^1[8:1]/6,,,,4^7[8:1],,,,
4,,2,2,1,,4x,,7,7,8,,5x,,3,3,1,,4x,,6,6,8,,5bxv3b[8:1]*v7b[8:1],,,,5b,,,,
2^7[8:1],,,,6,,5-8[8:1],,,,4-1[8:1],,,,7-3[8:1],,7,,8,,,,1pp1[16:5],,1,,5,,6,,7,,
8h[4:1]/E3/B3/B2,,,,,,,,1h[4:1]/B6/B5/E6,,,,,,Cf,,,,81,,72,,6/3,,4b-2[8:1]/5b-1[8:1],,,,45,,,,7b-4[8:1],,,,3,,2^7[8:1],,,,23,,,,5-1[8:1],,,,6,,7-4[8:1]*-3[8:1],,,,7,,,,2,,1,,8^3[8:1],,,,5,,6-4[8:1],,,,63,,,,2-6[8:1],,,,3,,4-2[8:1]*-8[8:1],
,,,4,,,,,,7,,7^4[8:1],,,,3,,2-6[8:1],,,,12,,,,8-4[8:1],,4,,8,,,,2^5[8:1]/5^8[8:1],,,,5-1[8:1],,,,5b-3-7-1b[4:3],,,,,,,,,,B5/B4/E5,,,,,,6h[8:5],,,,8,,8,,8,,8bw4[8:1],,,,8b,
