&title=SuperSonic (Mr.Funky Remix)
&artist=Mr.Funky
&first=0
&des=ラビ星 a.k.a. Golden Rabbit
&lv_5=13+
&inote_5=(130)
{4},,,,
{4}6h[4:4]/5>3[8:1],5,5<8[8:1],5,1>4[8:1],7,8<5[8:1],2,
{4}3h[4:4]/4<6[8:1],4,4>1[8:1],4,8<5[8:1],2,{8}1>4[8:1],8,7,6,
{4}5-1[4:6],4,,3,,2,,3,
{4}5/4-8[2:2]*-8[2:2],6,7,6,5,4,{8}35,45,4b/5b,,
{8}6-8[12:1]/5,7,6/5-1[12:1],4,5/6-8[12:1],7,56,1,3-1[12:1]/4,2,3/4-8[12:1],5,3-1[12:1]/4,2,34,8,5/7v4[12:1],6,8>3[12:1]/7,1,6v1[12:1]/8,5,26,5,4/2v5[12:1],3,1<6[12:1],8,3,4,73,45,
{8}5-7[12:1]/6,4,5/6<1[12:1],4,5-1[12:1]/6,4,56,8,
{8}5-7[12:1]/6,4,5/6<1[12:1],4,5-1[12:1]/6,4,56,8,
{8}5-7[12:1]/6,4,5/6<1[12:1],4-8[12:1],5-1[12:1]/6,4,5,4,
{8}5-7[12:1]/6,4,5/6<1[12:1],4,56,4b,{16}2,4,2,4,3,5,4-8[12:1],6,{8}5-1[12:1],4>2[12:1],5,4,8<5[12:1],,4-8[12:1]/8,{16}1,2,3,,4-8[12:1],,7,6,45,,{4}4b,
{16}1,7,2,6,3,7,4,8,{8}1v6[12:1]/5v2[12:1],37,1>4[12:1]/5,,
{8}5-1[12:1]/1,{16}8,7,6-2[12:1],,5b-1[12:1],,{8}6<8[12:1],5,6,2,
{16}7,5,6,4,5-1[12:1],3,4-8[12:1],2,{8}5<7[12:1],4>2[12:1],5,4,
{8}8h[4:1],6-1[12:1],{16}2,3,{8}4-8[12:1],2-6[12:1],34,2b,,
{8}17,35,28,46,17,17,17,17,{16}17,6,15,4,35,2,15,8,37,26,,,
{8}15,37,{1}1b<3[2:7]/5b>7[2:7],,,,
{2}5<7[4:1],4<6[4:1],3<5[4:1],2>4[4:1],1>3[4:1],8>2[4:1],7>1[4:1],6<8[4:1],5b<4[4:3],,5<4[4:2],{4},{8},18,
{8}2-5[12:1]/6,5-2[12:1],2-7[12:1]/6,7-2[12:1],6-3[12:1],5,6,7,
{8}2-6[12:1]/6,3/7-3[12:1],2/8-4[12:1],7<5[12:1],8,7,1,2,3/7-4[12:1],4-7[12:1],3/7-2[12:1],2-7[12:1],3-6[12:1],4,3,2,
{32}4h[16:1]/8,7,6,,{16},{32}5h[16:1]/1,2,3,,{16},{32}4-1[12:1]/8,7,6,,{8}3-6[12:1],4,3,8,7<4[12:1],5,7-3[12:1],{32}8-4[12:1],1,2,,{8}7,8,{32}7,6,5,,{8}1,
{8}7-3[12:1]/3,6/2-6[12:1],7/1-5[12:1],2>4[12:1],1,2,8,7,
{8}2>5[12:1],4,2-6[12:1],{32}1-5[12:1],8,7,,{8}2,1,{32}2,3,4,,{8}8,
{8}17,35,28,46,{16}3,5,3,5,{8}2-6[12:1]/6,18,{2}2b/7h[32:49],,,{32},4w8[8:1],,,{8},,,
{8}5-7[12:1]/6,4,5/6<1[12:1],4,5-1[12:1]/6,4,56,4,5>3[12:1]/6,7>1[12:1],5/6-2[12:1],7-3[12:1],6,7,8,7,
{8}5-7[12:1]/6,2,5/6<1[12:1],4,5-1[12:1]/6,2,56,4,5v8[12:1]/6,4<7[12:1],5v2[12:1]/6,4,,8,
{8}1/7-3[12:1],45,2-6[12:1]/7,5,2/7-3[12:1],4,27,5,{16}1/8-4[16:61]*-4[16:61],1b/8b,,,{4}3h[16:5],,{32},2h[16:5],,,{4},{8},{32},,,1h[16:5],{8},,,,,8-4[4:6],,{1},,
E
