&title=倍倍FIGHT!
&artist=CANDY TUNE
&first=0.02
&des_1=iC.Khronos
&des_2=iC.Khronos
&des_3=iC.Khronos
&des_4=iC.Khronos
&des_5=iC.Khronos
&lv_5=13
&des_6=iC.Khronos
&des_7=iC.Khronos
&des=iC.Khronos
&inote_5=(176)
{1},
{4}
5h[4:3]/4h[4:3],,,,
{16}
3/6,,,,2,,4,3,5,,3,4,2,,4,3,
5,,3,4,2,,4,3,5,,6,,7/4,,,,
7/4,,,,7,,5,6,4,,6,5,7,,5,6,
4,,6,5,7,,5,6,4,,3,,2/5,,,,
2/5,,,,2,,4,3,5,,3,4,2,,5,4,
6,,4,5,3,,6,5,7,,8,,8/5,,,,
7/4,,,,8,,3,4,1,,6,5,8,,3,5,
1b-5[8:1],,,,1b/6b,,,,2b-5[8:1]/8b-4[8:1],,3b/7b,,2b/8b,,,,
{16}
8/1,,7,,8/6,,,,8/1,,2,,1/3,,,,
2/4,,3,,4/5,,6,5,7<4[8:1],,,,3,,,,
1/4,,2,,3/4,,,,5/6,,7,,8/5,,,,
4/3,,2,,1/5,,8,6,8>3[8:1],,,,7,,,,
8/4,,7,,6/5,,,,1/5,,2,,3/4,,,,
5/6,,7,,8/1,,2,4,3>8[8:1],,,,6,,,,
7/8,,7,,7/5,,,,2/4,,2,,2/1,,,,
2/4,,3,,4/5,,7,5,6-8[8:1],,,,1b,,,,
{8}
5h[8:1]/4h[8:1],,4h[8:1]/3h[8:1],,6h[8:1]/4h[8:1],,4h[8:1]/2h[8:1],,
4/6-3[8:1],,3q7[8:1],,1h[8:1],,2/8,,
5/4,3,2/4,,4/5,6,7/5,,
3/6,4,5,4,3-6[8:1]/6-3[8:1],,,,
7h[8:1]/5h[8:1],,5h[8:1]/3h[8:1],,6h[8:1]/4h[8:1],,4h[8:1]/2h[8:1],,
7-4[16:3]/5,,4V61[4:1],,2-5[8:1],,,,
8/4,7,6/5,,1/5,2,3/4-7[8:1],,
3-8[8:1],,4-7[8:1],,1b,,2b/8b,,
4h[8:3]/3b,,,5,5>2[4:1],,6,,
7p4[2:1],,,1,1h[2:1],,,,
4h[8:3],,,5,5>2[4:1],,6,,
7qq1[2:1],,,2,2b,,3b,,
4bqq4[4:5]*pp4[4:5],,,,,,,,
,,,,,,2,,
3/5,4,4/6,5,3/5,4,4/6,5,
3/4,3,6/5,6,2/4,3,7/5,6,
{16}
1/5,,2,4,3,,7,5,
6,,1,4,3,,8/4,,
{8}
,7/3,6/2,5/1,4/8-4[8:1]*-3[8:1],,8b,,
2b-6[8:1]/1b-5[8:1],,2/1,,7-3[8:1]/8-4[8:1],1/6,7/8,,
2-5[8:1]/1-4[8:1],8/3,2-7[8:1]/1,,2/6,,8b/3b,,
2-5[8:1]/1-5[8:1],,2-7[8:1]/1-7[8:1],,2-4[8:1]/1-4[8:1],,2/1,,
5/6,7,8/1,2,3/4-8[8:1],,1b,,
7-3[8:1]/8-4[8:1],,7/8,,2-6[8:1]/1-5[8:1],8/3,2/1,,
7-4[8:1]/8-5[8:1],1/6,7-2[8:1]/8,,7/3,,1b/6b,,
7-5[8:1]/1-5[8:1],,1-3[8:1]/7-3[8:1],,7-5[8:1]/1-5[8:1],,7/1,,
4/3,2,1/8,7,6<1[8:1]/5,,2b,,
{16}
3,,8,,3,4,3,,
8,,3,4,3,,8/2,,
6,,1,,6,5,6,,
1,,6,5,6,,1/7,,
{8}
2/4,3,7/5,6,1/4,3,8/5,6,
1-5[8:1],,1>4[8:1]*<6[8:1],,1w5[8:1],,1,,
1b-5[8:1]/8b-4[8:1],,1b/8b,,1b-5[8:1]/8b-4[8:1],7b/2b,1b/8b,,
1b-5[8:1]/8b-4[8:1],7b/2b,1b>4[8:1]/8b<5[8:1],,8b/1b,,,,
{4}1/7,2/6,3/5,4qq7[4:3],4b/1b,,,,
{12}6/1,,,2,5,3,4-8[8:1],,,4b/3b,,,
{12}1h[4:1]/7,,,6h[6:1],,5,4/7,,,3h[6:1]/8,,4,
{12}5/2,,,7h[6:1]/4,,8,1-6[8:1]*-4[8:1]/6,,,1,,,
{4}7-4[8:1]/3,2-5[8:1]/7,2/6-1[8:1],6/3>4[16:5],
{4}7/3,,7-4[8:1]/3-8[8:1],7/3,
{12}1/6,,,2h[6:1]/5,,1,8/3,,,7h[6:1]/4,,8,
{12}1/6,,,3h[6:1]/8,,4,5<8[8:1]/2>5[8:1],,,5/2,,,
{4}1>5[4:1],5<1[4:1],1>5[4:1],5pp5[16:5]*qq5[16:5],
{4},,6-1[8:1]/4-2[8:1],6/4,
{12}8b-4[8:1]/3b,,,3,,2,2-5[8:1]/5,,,6,,7,
{12}7-3[8:1]/4,,,2,,1,1-6[8:1]*-5[8:1]/4,,,1,,,
{4}3-8[8:1]/7,5-1[8:1]/3,5/2-5[8:1],2/7<8[16:5],
{4}7/3,,7-2[8:1]/3-6[8:1],7/3,
{12}1-5[8:1]/8,,,6,,7,7-4[8:1]/4,,,3,,2,
{12}2-6[8:1]/5,,,7,,8,5>2[8:1]/8<5[8:1],,,5/8,,,
{4}1<5[4:1],5>1[4:1],1,5pp8[4:3],
{4}4qq1[2:1]/5,,,,
{12}7<5[8:1],7,8,7,,,3>1[8:1],3,4,3,,,
{12}7,7,8,6,5,6,7v5[8:1]/4p8[8:1],,,4b/7b,,,
{12}1b/6b,,1,7,,7,5,6,4,5,3h[6:1],,
{12}4,,2,2,5,4,6-1[8:1],,,6b/5b,,,
{12}2-4[8:1],2,1,2,,,6-8[8:1],6,5,6,,,
{12}3,,5,6/4,,3,2/4,,,6-1[8:1]/5-2[8:1],,,
{4}6b/5b,3-8[8:1]/4-7[8:1],3b/4b,4v1[8:1]/5v8[8:1],
{1}5b<4[4:3]/4b>5[4:3],
E
