&title=Artcore Jinja
&artist=An
&des=Ed@XF
&wholebpm=190
&first=0.18
&first_1=
&first_2=
&first_3=
&first_4=
&first_5=
&seek=
&wait=
&amsg_first=
&tap_ofs=
&hold_ofs=
&slide_ofs=
&break_ofs=
&lv_1=3
&lv_2=6
&lv_3=7+
&lv_4=11
&lv_5=12+
&inote_1=
(190)
{1},,,,,,,,1,1,2,2,3,3,4,4,5-1[1:1],,8,7,6-2[1:1],,2,3,4-8[1:1],,1,2,3-7[1:1],,6,5,
4h[1:2],,,,5h[1:2],,,,
6,7,8,1,2,1,8,7,6-3[2:3],,2-7[2:3],,8-4[2:3],,5-1[2:3],,
{2}
8,8,7,7,6,6,5,5,4,4,3,3,2,2,1,1,
{1}8b,,,,,,,,1,1,2,2,3,3,4,4-8[8:6],,
{2}8,7,6,5,4,3,2,1,1,2,3,4,5,6,7,8,
{1}8h[2:1],7h[2:1],6h[2:1],5h[2:1],4h[2:1],3h[2:1],2h[2:1],1h[2:1],
{1}1<2[4:13],,,,
{2}1,2,3,4,5,6,7,8,
{1}1b,,2,,3,,4,,5-1[1:1],,
&inote_2=
(190)
{1},,,,8-4[1:1],,5-1[1:1],,2,34,4,56,6,78,8,81,1^4[1:1],,5^8[1:1],,1-5[1:1],,4-8[1:1],,1-6[1:1],,1,2,3-7[1:1],,6,5,
4h[1:2],5,,6,5h[1:2],4,,3,
2,1,81,18,7,6,5,4,3-7[2:3],,7^2[2:3],,3^6[2:3],,6-2[2:3],,
{2}
1,1,2,2,3,3,43,43,5,5,6,6,7,7,18,18,
{1}1b>8[1:4],,,,,,,,{2}5,5,6,6,7,7,8,8,1,1,2,2,3,3,4,4^7[8:6],,,
{2}8,7,6,56,4,3,2,12,12,3,34,5,56,7,78,8,
{2}1h[2:1],2,3h[2:1],4,5h[2:1],6,7h[2:1],8,8h[2:1],7,6h[2:1],5,4h[2:1],3,2h[2:1],1,
{1}1-5[4:6],,4<1[4:6],,
{2}1,2,3,4,5,6,7,8,
{1}1b,1,2,2,3,3,4,4,5<4[1:2],,,,
&inote_3=
(190)
{1}4-2[3:1],6-8[3:1],5^3[3:1],1,8-5[2:1],1-4[2:1],5-1[2:1],4-8[2:1],{2}2,3,35,46,3,7,18,27,2,18,6,24,1,6,2,78,
{1}1p4[1:1],,5qq8[1:1],,1<5[1:1],,4-8[1:1],,1v6[1:1],8,1,2,3-7[1:1],5,6,5,
{2}
4h[1:2],5,7,6,
5h[1:2],4,2,3,
1h[1:2],8,6,7,
8h[1:2],1,3,2,
2,1,81,18,7,6,5,4,3-6[2:1],,7^2[2:1],,3^6[2:1],,6-2[2:1],,
{2}
1,1,2,2,3,3,43,43,5,5,6,6,7,7,18,18,
8,8,7,7,6,6,56,56,4,4,3,3,2,2,18,18,
{1}1b>8[4:15],,,,1<2[4:15],,,,{4}5,5,5,5,6,6,6,6,7,7,7,7,8,8,8,8,1,1,1,1,2,2,2,2,3,3,3,3,4,4,4,{2}4^7[8:6],,,
{2}8,7,6,56,4,3,2,12,12,3,34,5,56,7,78,8,
{2}1h[2:1],2,3h[2:1],4,5h[2:1],6,7h[2:1],8,8h[2:1],7,6h[2:1],5,4h[2:1],3,2h[2:1],
{1}1>1[4:15],,,,{4},
{2}12,23,34,45,56,67,78,81,
{1}1b,2,3,4,5h[1:1],4h[1:1],6h[1:1],3h[1:1],1b,
&inote_4=
(190)
{8}
6,,,5,,4,4,5,3,,,,3,4,3,4,5,6,3,4,,5,5,1,7^4[2:1],,,,,,,,
3,,,4,,5,5,4,6,,,,6,5,6,5,4,3,6,5,,1,8,2,7V15[2:1],,,,,,,,
45,,,6,,8,7,8,16,,,,1,2,3,4,5,4,6,3,,8,1,8,2q5[2:1]/7,,,,,,,,
45,,,3,,1,2,1,38,,,,8,7,6,5,4,5,3,6,,1,8,1,2bV83[2:1]/7bV58[2:1],,,,,,,,
4,,,4,,5,53,3,13,,,,3,4,5,6,7-3[3:1],7,8,8,,1,1,2,3/8-4[2:1],,,,,,,,
5,,,5,,4,46,6,68,,,,6,5,4,3,2-6[3:1],2,1,1,,8,8,7,61,,,,27,,,,
18,,,18,,18,2,3,4^7[4:1]/3,,,,3,4,3,5,3,2,1,8,,78,1,2,3-8[2:1]/6,,,,,,,,
45,,,54,,45,6,7,7/8^3[4:1],,,,7,8,7,1,7,6,5,4,,34,5,6,27,,,,18,,,,
4b,,35,5,,5,,64,,45,36,,4,5,36,,
5,,46,4,,4,,53,,45,63,,5,4,36,,
3,,25,5,,6,,47,,45,27,,4,5,27,,
6,,47,4,,3,,25,,45,27,,5,4,27,,
1,,,56,,4,5,3,8,1,8,1,,28,,3,
45,,,3,,3,4,5,6,,,7,,3,2,1,
8,,,43,,5,4,6,1,8,1,8,2,4,5,7,
45,,,6,,6,5,4,3,,,2,,6,7,8,
1b,,,1,,8,8,1,7,,,,1,8,2,7,3,2,1,7,,8,8,1,2^5[2:1]/7,,,,,,,,
8,,,8,,1,1,8,2,,,,8,1,7,2,6,7,8,2,,1,1,8,2V84[2:1]/7,,,,,,,,
{4}5,56,5,57,4,34,4,24,1,18,1,17,8,18,8,28,34,24,43,14,56,57,56,58,4^1[4:1],,8^5[4:1],,4p3[2:1],,,,
{2}
2b/7b,,56,,{64}3,4,,,,,,,
,,,,,,,,
,,,,,,,,
,,,,,,,,{64}5,6,,,,,,,
,,,,,,,,
,,,,,,,,
,,,,,,,,{2}36,,
12,,78,,{64}5,4,,,,,,,
,,,,,,,,
,,,,,,,,
,,,,,,,,{64}3,6,,,,,,,
,,,,,,,,
,,,,,,,,
,,,,,,,,{2}27,,
{4}1b>5[2:1],8,7,6,5v2[2:1],6,7,8,8<4[2:1],1,2,3,4v7[2:1],3,2,1,1^6[4:1],2,3^8[4:1],5,5^2[4:1],6,7^4[4:1],8,8-4[4:1],,1-5[4:1],,4,3,2,1,1w5[2:1],,,,
{8}1b-5[4:1],,,8h[4:1],,4,,3,2,1,2,1^6[4:1],,3,,4,4h[8:3],,,1-6[3:1],,4,4,3,3,,,27,,7,{16}1,8,1,8,
{8}1^4[4:1],,,8,,8,7,6,5,5,5,3,4,3,8,8,1h[4:1]/8h[4:1],,,72,,1,2,3,5h[4:1]/4h[4:1],,,36,,2^5[4:1],2,,
{8}8-4[4:1],,,1h[4:1],,5,,6,7,8,7,8^3[4:1],,6,,5,5h[8:3],,,8-3[3:1],,5,5,6,6,,,27,,2,{16}8,1,8,1,
{8}8^5[4:1],,,1,,1,2,3,4,4,4,6,5,6,1,1,8h[4:1]/1h[4:1],,,72,,8,7,6,5h[4:1]/4h[4:1],,,36,,7^4[4:1],7,,
{8}1,,,12,,,23,,,34,,,45,,,56,,,67,,,78,,,18,,,18,,18,,1,
{16}6,5,6,5,6,,3,4,3,4,3,,2,,,,1,,8,,2,,7,,3,,6,,4,,5,,2,1,2,1,2,,7,8,7,8,7,,6,,,,4,,5,,3,,6,,1,8,1,8,1,8,1,8,
{1}1b<3[4:15],,,,5h[1:1],6h[1:1],7h[1:1],8h[1:1],1b,
&inote_5=
(190)
{4}
3h[1:1],,,,1h[2:1],,8h[2:1],,
6h[1:1],,,,5h[2:1],,4h[2:1],,
3-8[2:1],,,,6-1[2:1],,,,
{8}4,3,2,1h[8:5],,8,7,6,{1}5w1[2:1],
{8}
4,4,5h[8:3]/3,,,1,28,,
5,5,4h[8:3]/6,,,8,17,,
3,3,4h[8:3]/2,,,8,17,,
6,6,5h[8:3]/7,,,1,28,,
7,7^4[6:1],6h[8:3]/8,,,1,28,,
2,2^5[6:1],3h[8:3]/1,,,8,17,,
5,6,7,8h[8:5],,1,2,3,{16}4>4[16:9],,,8,,,7,,6,,5,,,,6,6,
{8}
3,8<5[8:1],2,8,,34,25,,
6,1>4[8:1],7,1,,56,74,,
3,8<5[8:1],2,8,,34,25,,
61,16,78,{16}7,1,6,,35,,{8}26,,
6,1v4[8:1],7,1,,56,74,,
3,8v5[8:1],2,8,,34,25,,
6,1v4[8:1],7,1,,56,74,,
38,83,12,{16}2,8,3,,46,,{8}73,,
2-4[8:1],8-5[8:1],2,8,,6,73,,
7-5[8:1],1-4[8:1],7,1,,3,26,,
2-4[8:1],8-5[8:1],2,8,,6,73,,
16,16,78,{16}7,1,6,,35,,{8}26,,
6^8[8:1],4v1[8:1],6,4,,2,37,,
3^1[8:1],5v8[8:1],3,5,,7,62,,
4,3,2,18,,8,7,6,
4V28[2:1]/5V71[2:1],,,,,,,,
{8}1-5[8:1],8-6[8:1],1,8,,4,38,12,,78,16,{16},5,4,,36,,8,1,27,,
{8}8-4[8:1],1-3[8:1],8,1,,5,61,78,,12,38,{16},4,5,,36,,1,8,27,,
{8}1-5[8:1],8-6[8:1],1,8,,4,38,12,,78,16,{16},5,4,,36,,8,1,27,,
{8}8-4[8:1],1-3[8:1],8,1,,5,61,78,,12,38,{16},6,5,4,3,2,1,8,7,6,
{8}1h[8:3],,,7h[8:2],,5h[8:1],4h[8:1],3h[8:1],1-7[8:1],2-5[8:1],1,2,,6h[8:2],,4h[8:1],
5h[8:3],,,3h[8:2],,1h[8:1],8h[8:1],7h[8:1],6h[8:5],,,7h[8:5],,,{16}5,4,3,2,
{8}1h[8:3],,,7h[8:2],,5h[8:2],,6h[8:1],8h[8:1],4h[8:1],3h[8:1],1h[8:1],2h[8:1],4h[8:1],6h[8:1],8h[8:1],
1h[8:3],,,7,,3h[8:1],4h[8:1],5h[8:1],6h[8:5],,,3h[8:5],,,{16}8,7,6,5,
{8}4,,,4,,5,4,5,3,,{16}3,4,2,5,3,4,2,4,3,,,,
{8}5,4,3,6,,4,5,4,6,,{16}6,5,7,4,5,3,6,4,5,,,,
{8}4,,,4,,5,4,5,3,,{16}3,5,2,6,4,7,5,6,4,,,,
{8}4,5,6,3,,4,5,4,6,,{16}7,5,6,3,4,2,5,4,8,,,,
{4}
4-2[8:1],47,4^1[8:1],48,5-7[8:1],52,5^8[8:1],51,
1-3[8:1],16,1^4[8:1],15,8-6[8:1],83,8^5[8:1],84,
{8}3,4,25,4,3,4,25,3,6,5,47,5,6,5,47,6,
{8}4,3,2,1h[8:2],,8,7,6,{1}5w1[2:1]/4w8[2:1],
1b-4[2:1]/4b^6[2:1],1-5[2:1],{2}1-4[2:1],4-8[2:1],8-5[2:1],,
{1}1b-4[2:1]/4b^6[2:1],1-4[2:1]*-6[2:1],3-7[2:1]/7-3[2:1],4V68[2:1]/5V31[2:1],
{8}
2,1,2,38,,38,,5,4,36,,36,,,,,
7,8,7,16,,16,,2,1,38,27,16,,,,,
4,5,4,36,,36,,2,7,1,8,27,,,,,
3,4,2,5,,16,,1,2,3,4,56,,45,,3^6[8:4]/4,
{1},
{8}1-5[4:1]/8h[4:1],,,1^6[8:1],,1/4^2[8:1],,46,7-5[8:1],8-3[8:1],7,8-4[8:1],,8-2[8:1],,8,6>2[8:3],,,2<5[2:1],,4,4,3,3,,,8>4[16:5]/5,,5,{16}5,6,7,8,
{8}1-5[6:1]/5-1[6:1],,,,,3,8,2,1-5[8:1],2,1,8-4[8:1],7,8,1>6[4:1],3,1,,,71,,6,8<3[4:1],6,8,,,82,,7,{16}5,4,3,2,
{8}8-4[4:1]/1h[4:1],,,8^3[8:1],,8/5^7[8:1],,53,2-4[8:1],1-6[8:1],2,1-5[8:1],,1-7[8:1],,1,3<7[8:3],,,7>4[2:1],,5,5,6,6,,,1<5[16:5]/4,,4,{16}4,3,2,1,
{8}8-4[6:1]/4-8[6:1],,,,,6,1,7,8-4[8:1],7,8,1-5[8:1],2,1,8<3[4:1],6,8,,,28,,3,1>6[4:1],3,1,,,71,,{16}2,3,4,5,6,7,
{8}8b-3[8:1],,,4-7[8:1],,,8-3[8:1],,,4-7[8:1],,,1-4[8:1],,,5-8[8:1],,,2-5[8:1],,,6-1[8:1],,,3-6[8:1],,,7,,8,,8,
{16}8b,7,6,5,
2,3,4,5,
7,8,1,2,3,4,5,6,
1,2,3,4,
7,6,5,4,
2,1,8,7,6,5,4,3,
7,6,5,4,
8,7,6,5,
8,1,2,3,4,5,6,7,
2,3,4,5,
1,2,3,4,
1,8,7,6,5,4,3,2,
{1}1b/5b,2h[256:1],3h[256:1],4h[256:1],
{8}5,4,6,6h[4:1],,4,5,3,3h[8:3],,,5,3,4,5,6,4,5,3,3h[4:1],,5,4,6,6h[1:1],,,,7,,,,8s4[1:2]*z4[1:2],,,,,
&amsg_time=
&amsg_content=EC~R@SO4
