&title=POP IN 2
&artist=B小町
&first=0
&des=有马shangle
&lv_5=13
&inote_5=(176)
{1},
{8}8<5[16:7]/4,,,,3,3,2,1s5[16:7]/4,,,,6,6h[8:1],,2,1/8,,7,46,,{16}3,5,3,5,
{8}3,2-5[8:1],,6,7,8,12,12,3,6/4>1[8:1],,5,5,6,87,16,87,1V73[8:2],,7,6,5,2,2,4,5h[4:1],,4,4h[8:1],1,1-5[8:1],,1b/8,
{8}7-4[8:1],,3,2,1,87,87,6,3/5<8[8:1],,4,4,3,12,83,12,
3<6[8:1],,8,8h[8:1],,2h[8:1]/7h[8:1],,1h[8:1]/5h[8:1],,2,2,3,4,6,5,4,5,
{8}8pp3[4:2],,,,,,,7,7w3[8:4],8,,,,,,,7<4[8:1],7,,8v3[8:1],8,,7<4[8:1],7,,2q6[32:5],2,,8-3[8:1]*-5[8:1],,8,,
2V48[16:7]/6V48[16:7],,,,,,,1>4[16:9],2,8<5[8:3],,,,,,,7-2[8:1],7,,4-1[8:1],4,,7<3[8:1],7,,2q7[32:5],2,,1w5[8:1],,1b,,
{4}3pp6[8:12],,1,,,8,1,,
{4}2>7[8:12],,1,,3,{8}3,,1,,,
{16}
2,8,4,,7,3,5,,
{8}1,2h[4:1],,4h[4:1],,7V52[2:1],,5-1[4:1],,,,,,
{8}1b/8b,,7h[4:1],,5h[4:1],,4,,2<7[16:3]/4,,7>2[16:3],,5-8[8:1],,,,
{4}1<4[8:4]/2p4[8:4],,,,8>5[8:4]/7q5[8:4],,,,
{8}5<7[8:1],5,2,,4>2[8:1],4,7,,{4}8<4[4:1],4>8[4:1],8<4[4:1],4,
{8}2-4[8:1],2,8,,7-4[8:1],7,1,,1<7[8:1],2,3,,6v1[8:1],5,4,,2-5[8:1],2,8-4[8:1],8,3-7[8:1],3,6,6h[8:7],8,8,8,8,8,8,8,2h[8:4],8h[8:3],,,,1-5[8:1],,1b,,
{8}
46,8,35,1,47,8,25,1,56,8,34,1,4-7[8:1]/1-4[8:1],,,,
57,6,35,4,58,7,26,3,48,1,3V16[4:1]/8,7,6>3[32:5]*p2[32:5],,,,
1,8,27,3,46,8,35,1,27,6,5pp4[32:10]/3qq4[32:10],1,,,,,
2,1,8-5[8:1],3,3<6[8:1],,63,,8-4[8:1]/7,,83,,1-5[8:1]/2,,1b/7,,
{8}84,3,25,6,17,82,1,1/6h[4:1],,5,3h[8:1],1,17,28,17,6,
{16}2,,5,3,7,,4,6,35,,46,,3,,2>7[16:6],,,,7,,7>2[16:4],,,,2w6[32:5],,,,,,,,
{8}84,2,15,7,46,53,4,4/7h[4:1],,8,2h[8:1],4,46,35,47,3h[2:1],
{8}1b,,,7,7-4[8:1],,27,1pp8[8:3],,6,6,,5,76,76,,
{8}
1h[2:1],,,,4h[8:3],,,1h[4:1],,7,7h[4:1],,8-4[8:1],,8b,
{8}7<4[8:1],,3,2,1,87,87,6,3/5<8[8:1],,4,4,3,12,83,12,8V26[8:2],,2,3,4,7,7,5,4h[4:1],,5,5h[8:1],8,8-4[8:1],,8b/1,
{8}2-5[8:1],,6,7,8,12,12,3,6/4>1[8:1],,5,5,6,87,16,87,
6>3[8:1],,1,1h[8:1],,7h[8:1]/2h[8:1],,1h[8:1]/5h[8:1],,2,2,3,4,6,5,4,5,,,4h[8:13]/3<2[8:12],
E
