&title=Zako (Uncensored Version)
&artist=Hiiragi Magnetite
&first=0.53
&des=Aza
&lv_5=13+
&inote_5=(135)
{4}7v6-4[4:1],4,3qq4[4:1],5,{8}6,6h[8:1],4,4/5,,3h[4:1],4,5,6-1[8:1],6,2-5[8:1],2,8,7h[4:1],,8x,1/6,2/5,3/4-1[8:1],3h[4:1]/4,,,{4}8h[4:1],5>1[4:1],6x,4<8[4:1],3x,{8}2,2h[8:1],1,1/3h[4:1],,6h[4:1],5,4,3-8[8:1],3,7-4[8:1],7,1,2h[4:1],,1x,3/8,4/7,5-3[8:1]/6,5/6h[4:1],,,1x/8x,,
{4}2bv4[8:1]/7,4,{16}6h[8:1],,,5,6,,4/8,,{4}3/7-3[8:1],1,{16}2h[8:1],,,4,2,,3/5,,{4}2v8[8:1]/6,8,{16}7h[8:1],,,1,7,,2/6,,{4}1/5<8[8:1],3/5,5>2[8:1],5/7,{8}1x>4[8:1]/6,7,1/8h[4:1],,{16}5h[8:1],,,7,5,,4/6,,{8}8x<5[8:1]/3,2,8/1h[4:1],,{16}4h[8:1],,,2,4,,5/3,,{8}2x>5[8:1]/6,7,2/8h[4:1],,{16}6hx[8:1],,,7,5,,4/6,,{4}2h[8:1]/4h[8:1],5h[8:1]/7h[8:1],{8}1x/8x,2/7,1x/8x,E6/B5/B4/E4,
{4}2/7-1[8:1],4/7,3-5[8:1]/8,3/6,{8}7,8,1,2pp1[4:1]/8,,E1,E8,E7,8,8,7,7,1/6V47[4:1],1/6,,E1,E2,E3,4,8,1x/2x,3/8,1x/2x,E7/B6/B5/E5,
{4}1-4[8:1]/8,1/3,1/8-5[8:1],6/8,{8}7,5,4,3/6qq8[4:1],,D1,D2,D3,4-1[8:1],4,7V58[4:1],7,2,2h[4:1],,1,2,3,4/7,5/6,7x/8x,1/6,7x/8x,E5/B4/B3/E3,
{4}1bx>6[2:1]/8bx,7,6qq2[8:3],7x-1[8:1],,{8}1/3,4-2v8[4:1]/6,7-5[8:1],,,,1,2/4,6,5/8,7,5v7-4[4:1]/4,,3,2,1,8-2[8:1],8<5[8:1],,,E5,E3/E7,
{8}1bx/8bx,1,2,2,3,3,4,4,5,5,6,6,7,7,8,8,{16}2,1,2,1,3,8,3,8,4,7,4,7,5,6,5,6,E5,E4,E3,E2,E1,E8,E7,E6,{32}A5,A4,A3,A2,A1,A8,A7,A6,{4}1-6[8:1]/5x-2[8:1],
{4}1b>4[8:1]/5,1/7-4[8:1],7/8V25[4:1],8/5v3[8:1],{8}6-1[8:1],7,2-6-3[4:1],3,2/8-4[8:1],7,{4}8,1-5[8:1]/2-6[8:1],1/2,3-7[8:1]/7-4[8:1],3>8[8:1]/7,{8}3/6-3-1[4:1],5,1V74[4:1]/6,2x,3x-7[8:1],,3b,,1-5[8:1]/6,4x/3x,{4}1/6-2[8:1],3-5[8:1]/6-8[8:1],3/6,{8}1/2-5[8:1],4,2/8,6,{4}1-5[8:1]/7-4[8:1],1/7,{8}3h[8:1]/4x,2,1/2,8,1x/7h[8:1],8,5/6,4,3V52-6[4:1]/5,2,3/6-1[8:1],7,8h[4:1],,2b,,
{8}1/7-4[8:1],3/5,8/7,{16}2,2,5,3,4,1,{8}6>3[8:1],4/8,2-5[8:1]/6,1,2/7-3[8:1],8-4[8:1],7,8,5<8[8:1],3/6,4/5,2,{16}1-6[8:1],7,2,6,1>5[8:1],,8,8,{8}1,7,{4}6/8hx[2:1],5>2[8:1],5v8b[8:1],1b/5,
{8}8/2-5[8:1],6/4,1/2,{16}7,7,4,6,3hb[4:1],,{8},5,{16}2/6,,{24}2,3,4,1,,,1,2,3,8,,,{8}1hb[4:1]/5h[4:1],,,3/4,7,{16}8-3[8:1],2,7,3,8<4[8:1],,1,1,{8}8,2,{4}3/1hx[2:1],4<7[8:1],4v1b[8:1],8b/4,
{4}2pp5[2:1]/7h[8:1],7h[8:1],8h[8:1],1h[8:1],7qq4[2:1]/2h[8:1],2h[8:1],1h[8:1],8h[8:1],{8}E7,E6,E5,E4,E3,Ch[4:1],,B1,B7,B3,B5,C,1x/8x,2/7,1x/8x,E6/B5/B4/E4,1bx/8bx,2/8,3/8,4/8,1/8,2/8,3/8,4/8,1/8,1/7,1/6,1/5,1/8,1/7,1/6,1/5,{16}3,4,3,4,2,5,2,5,1,6,1,6,8,7,8,7,{4}8>8b[2:1],,,{32},1x,2x,3x,4x,5x,6x,7x,{4}8x-4b[2:1],1,1,1,{8}2/6,3/7,2/6,3/7,2-6[8:1]/6,,Cf,,
{8}4-8[8:1]/6,3,5-1[8:1],6,4-2[8:1],3,5-7[8:1],6,{4}2-5[8:1],2/6-8[8:1],3-5[8:1]/6,3/7-4[8:1],{8}2/7,1,2/5,1/6,2/5,1b/2b,1b/2b,,4^3-1^8[4:1],4,8^7-5^4[4:1],8,{2}4V28[8:1]*V68[8:1],{8}1-6[8:1],,7,7,2q6[8:1],2,8,,3<6[8:1],3,1,,4-6[8:1],4,1h[4:1],,
{8}8b-3[8:1],2/6,4/8,{16}7,7,5-2[8:1],6,3,8,{8}5,1,{16}7<4[8:1],,2,2,7>2[8:1],,3,3,7-3[8:1],,4,4,{8}7,2,1/8,7/8,{16}6-1[8:1],5,7,5,6,,3,3,4,2,6,1,{4}8-3[8:1],4-7b[8:1]/8,6-1[8:1]/4,2x/6,{8}3-8[8:1]/4,1/6,3/5,{16}7,7,5,6,{8}4hb[4:1],,6x,1/2-5[8:1],3/8,1/2,{16}7,7,8,6,{8}1hb[4:1],,4,2-5[8:1]/5,3/6,2/5,{16}7,7,4,6,3,5,2h[4:1],,4,5,{4}6-4-7-3[4:1],3-8[8:1],1hx[4:1],{32}7x,6x,5x,4x,3x,2x,1x,8x,
{4}7b-4[8:1]/3b-8[8:1],3/7-3<6[4:1],{8}1-5-2b[4:1]/7,2,1<6[8:1],,1,3,4-2[8:1],5,4-7[8:1]*-8[8:1],,4b,,1v2[8:1]/6,2^3-5[24:5]/5,1/6-8[12:1],,6-2[8:1],,2/6,,7bx/8bx,1/6,7x/8x,E5/B4/B3/E3,1bx/2bx,3/8,1x/2x,B6/E7/B5/E5,1x/8x,2/7,{16}1,2,3,8,7,6,1hb[4:1]/5h[8:1],,,,4,5,6hb[4:1],,,3,3,4,2,6,5,7,{8}1hb[8:1]/8hb[8:1],,1/8,1/2>7[4:1],3,2/7b-4-1[4:1],8,1bpp5[8:3],,6-1b[8:1],6,{4}6-3[8:1],2-5[8:1]/6,2/7-3[8:1],7/8,
{1}1b>8[2:3],,{4}3h[8:1]/4h[8:1],3h[8:1]/6h[8:1],5h[8:1]/6h[8:1],3h[8:1]/6h[8:1],{8}4,3h[4:1],5,6h[4:1],5-1[8:1],,,,{1}8b<1[2:3],,{4}7h[8:1]/8h[8:1],5h[8:1]/6h[8:1],3h[8:1]/4h[8:1],1h[8:1]/2h[8:1],{8}8,7h[4:1]
,3,4h[4:1],6-2[8:1],,,,3x/4x,2h[8:1]/6,5,2h[8:1]/6,{16}5h[16:3],,,3h[16:3],,,1,,{8}5x/6x,7h[8:1]/3,4,7h[8:1]/3,{4}4h[4:1],3,{8}4x/3x,2h[8:1]/6,5,2h[8:1]/6,{16}5h[16:3],,,3h[16:3],,,1,,{8}5x/6x,7h[8:1]/3,4,7^8-5v4b[4:1]/3,4,
