&title=起死開戦
&artist=millsage
&first=-0.161
&des=dissipae
&lv_5=14
&inote_5=(170){4},,,,,6-3[1:2],
,,E7,
,,C,
,,{2}E3,
{4}6>3[2:1],8h[2:1],,,{1}8h[4:3]/6>3[2:1],
1h[4:3],
{6}2,2,2,2h[4:5],{24},,E4,E5,{6}E6,
,,,,,,{2}4b-1[12:1]/5b-8[12:1],
{4}6b/3b,1b-4[12:1]/8b-5[12:1],
{8},,6b/3b,7b/2b,{2}8b-3[12:1]/1b-6[12:1],
{4}5b/4b,5b-8[12:1]/4b-1[12:1],{8},,,,2/5,
{16}3,4,,,{8}3/4,{4}2/8,{8}7/4,{16}6,5,
,,{8}6/5,{4}7/1,{16}3,4,3,4,3,4,3,4,
3,4,3,4,{4}3b<5[4:1],{16},,,,,,,,7h[16:3],
,,6,,,{8}5h[4:1],,6,{4}5/7,
{16}3h[16:3],,,4,,,{8}3/4h[4:1],,3,{4}2/4,
{16}5,,,6h[16:3],,,{8}5h[4:1],,6,{4}7h[16:3]/5h[16:3],
{8},6h[16:3]/3h[8:3],{16},,,,5,,,3,{8}4,3,
{4}4/2,{8}3,3h[8:1],{16}4,,,5/3,,,{8}6h[4:1],
,5,6,7/5,{16}8-2[8:1],,,2,,,{8}3-8[8:1],
{16},8,,,7-5[8:1],,,5,,,{8}4-7[8:1],{16},7,,,{8}8>3[8:1],
8,{4}8b,4-8[8:1],{8}4x,5,
,B1/E1,{4}E7/B7,{8}3,4,5/2,6/1,
{4}7<4[8:1],7b,{16}2>5[8:1],2,,1,,,{8}8,
8-4[8:1],6x,8,3,{4}2-5[8:1],2x,
6x,2x-4[8:1]*-5[8:1],2x,7x-4[8:1]*-5[8:1],
7x,2xpp5[8:3]/8xqq5[8:3],{2}A8/A2,
{6}2bx/B7,2bx/B6,2bx/B5,2bxh[4:1]/B4,{12},7bx,,7bx/B2,
,7bx/B3,,{4}7bxh[4:1]/B4,{8}1h[4:3],,,8,
{4}8,7h[4:3],{8},1,{4}1,
2h[4:3],{8}1,1,,7,{4}7h[4:1],
{8},6/4,{4}5/3,{8}8/7-4[8:1],{16}6,5,{8}7,2-5[8:1],
{16}3,4,{8}2,7-3[8:1],{16}8,3,{8}7,2,{16}1,5,{8}3,
7/5,{16}6,5,{8}6,2/4,{16}3,4,{8}3,{4}1xs5[4:3]/8xz4[4:3],
{1},{4},,{32}3h[1:2]/B8,
B7,{16}B6,{4},,,{16},,{32}E7,
E6,{16}E5,{4},,,{16},,{32}D6,
D5,{16}D4,{48},,,,,,,,,,,,,,,,,,{12}6x,
6,6,7/5,,,{4}3,{8}3,3,
3/4,3,3/4,3,6,6,6/5,6,
7/4,3h[4:1]/8h[4:1],{16},,,,2,1,,1,{8}3,{16}3,5,
,5,{8}8,{16}8,6,,6,{2}1-5[2:1]/5-1[2:1],
{8},,,,6/2,{16}3,4,,4,{8}3,
{16}1,8,1,8,{8}7/2,{16}6,5,,5,{8}6,7/4,8/3,
2/5,{16}3,4,,4,{8}3,{16}6,5,6,5,6,5,6,5,
{2}6h[2:1],{8}2>5[8:1],{16}8,1,{4}7-3[8:1],
1,{8}6<1[8:1],{16}4,5,{4}3-7[8:1],5,
{8}4/8,7/3,6/2,{16}1,5,2,6,3,7,4,8,{8}5<8[8:1]*>2[8:1],
,5w1[12:1],,,,6/4,{16}7,3,6,4,
{2}5h[2:1],{8}2>5[8:1],{16}1,8h[16:3],{4}2,
7p4[8:3],Cf,{2}2h[2:1],
{16}7,7,{8}5,6,{16}8,2,{8}7<4[8:1],{16}8,1h[16:3],{4}7,
2q5[8:3],Cf,{8},7,{4}7h[4:1],
{8}8,{16}2x,4x,,4x,{8}3x,2/5,{16}6,4,,4,{8}7,
{16}7,2,,2,{8}4,{16}4,3,{8}5h[4:1],2,1,8h[4:1],
7,6,{4}5h[8:1],{8}2/5,{16}3,4,{8}3,{16}3h[8:1],5,
{4}6,{8}7/4,{16}6,5,{8}6,{16}6h[8:1],4,{4}3,
{8}2/5,{16}3,4,{8}3,{16}3h[8:1],5,{8}6,7/1,{4}4h[4:1]/5h[4:1],
{8},,,,7,{16}7,4,,4,{8}6,
6,3/6,2,{16}2,8,,8,3,7,,4,{8}6,
5/3,4/6,2,{16}2,5,,5,{8}3,3,3/6,
7/4,{16}6,5,{8}6,2/5,{16}3,4,{8}3,1/8,8/1,
6,{16}6,5,,5,{8}4,4,4x/2x,3,{16}3,4,
,4,,5,,5,{8}6,5x/7x,5x/7x,6,{16}6,5,
,5,{8}4,4,4,{16}3xh[8:1]/5xh[8:1],,,4xh[8:1]/6xh[8:1],,,{8}4xh[8:1]/2xh[8:1],
{16},5xh[8:1]/7xh[8:1],,,E8,B8,B1,E2,3xh[8:1]/4xh[8:1],,,5xh[8:1]/6xh[8:1],,,{8}1xh[8:1]/3xh[8:1],
{16},6xh[16:7]/8xh[8:1],,,,,,,{2}1-4-7-5-8[4:5],
{8},,,,,,,,,,,,2/5,
{16}3,4,{8}3,2/4,
{4}1/5,{8}7/4,{16}6,5,{8}6,7/5,{4}8/4,
{1}2bxh[4:7]/7bx-4-1-3-8b[4:5],
{8},,,,,,,,2/5,
{16}2,3,{8}4,6/4,{4}3/7,{8}7/4,{16}7,6,
{8}5,5/3,{4}2/6,{8}1<6[8:1],2,1/3,4,
4-8[8:1],5,4,E7/B6,,B8/E1,E3/B2,6,
{16}6,5,{8}7,4/7,3/8,2>5[8:1],1,{4}2/8,
{16}7<4[8:1],7,,8,,,{8}1,1-4[8:1],3x,1,8,
{16}7-4[8:1],5x,{8}7,,,3x,1x,{4}7x-4[8:1]*v4[8:1],
7x,2x-6[8:1]*v5[8:1],2x,7xqq4[8:3]/1xpp4[8:3],
{2}A1/A7,{6}7bx/B2,7bx/B3,7bx/B4,
{4}7bxh[4:1]/B5,{12}2bx,,2bx/B7,,2bx/B6,,{4}2bxh[4:1]/B5,
{16}1s5s1[4:9],,,8x,,,{8}8x,{4}8x,{16}7x,,,7x,
,,{8}7x,{4}7x,{8}6h[4:1],,,6h[4:1],
,,{4}5h[16:3],{16}4x,3x,2x,1x,8x,7x,6x,5x,
2,6,2,6,2,7,2,7,3,8,3,8,2,6,2,6,
3,5,3,5,4,6,{8}4,3/5,2/6,,7/5,
{4}8/4,{8}8/2,7/3,{32},,,,1b/8b,7/2,6/3,4h[32:5]/5h[32:5],,,,,,,,,6x,
7x,8x,1xh[32:13],,,,,,,,,,,,,{16}3,8,3,8,3,8,3,8,
{8}2h[2:1],,,1,7h[8:3],3,4,{16}5,6,
{8}5h[16:3],{16}7x,7h[16:3],,,{8}4h[4:1],8,1h[8:3],2,2,
3h[16:3],{16}4x,4h[16:3],,,{8}2h[16:3],{16}8x,8h[16:3],,,{8}5h[8:1],6,
{4}7/5h[4:1],{8}6,5/7h[4:1],{16},,3,4h[8:1],{8}2,3,
4/2h[4:1],5,{16}6,5,6,5,{8}6h[8:1],{16}3,4,3,4,{8}3h[8:1],
4,5,{4}6/4,C/7pp4[8:5],3,
3,3h[4:1],{8},3,{4}3/5,
C/2qq4[8:5],6,6,6h[4:1],
E7,C,E3,E7/8>6[4:3],
E5,E3,,,{1}7s3[4:9],
{24},,,,,,,,,,8x,1x,{2}2xz6[8:7]*z6[8:7],
{8},,,,,,,,2/6,
{16}3,4,,,{8}7/3,{16}6,5,,,{8}2/4,{16}3,4/3,
,,{8}7/5,{16}6,5/6,,,2,7,2,7,1,8,1,8,
{32}1h[32:29],{4},,,{16},,{32}8b,2/7,6/3,
5/4,,,,,5,,,{16}4,5,4,5,{8}4h[4:1],5,6,7,
8/3>8[16:3],{16}4,5h[16:3],{4}3,6pp1[8:3],Cf,
{8},3,{4}3h[8:3],{16},,7,7,{8}5,6,
{16}8b,2,5,4,{8}6,{16}1b,7,4,5,{8}3,{16}8b,2,6,4,
{8}5,{16}2b,8,4,6,{8}2,{16}3,5,{8}4,{16}7,5,6,4,
{4}8,{8}2,2h[2:1],,5,6,7h[2:1],
4,5,4,3h[8:3],5,4,{4}5,
{16}6,5,{8}6h[8:1],{16}3,4,{8}3,{16}7,5,{32},2,,4,,,,,{8}3h[8:1]/5h[4:1],
,,1,{16}1,4,1bh[8:1],,,2bh[8:1]/5bh[8:1],,,{8}3bh[16:1]/6bh[16:1],
{4}7b/4b,8/4,{16}2,1,2,1,2,1,2,1,
{8}2bh[4:3],{32},,,,,,,,,,,,,,,,1b,8b,7b,6b,{4}5b,
{8}2/5,{16}3,4,{8}3,{16}5/3h[8:1],6,{4}7,{8}7/4,{16}6,5,
{8}6,{16}4/6h[8:1],3,{4}2,{8}2/5,{16}3,4,{8}3,{16}5/3h[8:1],6,
{8}7,7/1,{4}4h[4:1]/5h[4:1],{16},,,,,,,,3/5,
,,6/4,,,{8}5/3,{4}7>1[8:1],{8}3,3,
{4}4,{16}4/6,,,5/3,,,{8}4/6,3,{16}6,5,
{8}7h[8:1],4,{4}3/6,{16}4/6,,,5/3,,,{8}7/4,
{4}2,{8}6V47[8:3],6,3h[4:1],,,2,
{16}1,8,{8}2h[8:1],{16}8,1,{8}7h[8:1],8,2h[8:1],1,7h[8:1],
{16}2,,,1/7,,,{8}8/2,{4}1/6,{8}3<5[4:1],8,
{4}8,{16}7,,,6/1,,,{8}2/8,{4}1/7,
{8}6>4[4:1],1,{4}1,{16}2,,,1/7,,,{8}8/2,
{4}1-3-5[4:1],{8}5V31[4:1],6,{4}6,7>3[4:1],
{8}3>7[4:1],4,5,5,{16}5,4,{8}3,{16}5,6,{8}7,
{16}7,,,8/2,,,{8}1/7,{4}2/8V64[4:1],{8}4V68[4:1],3,
{4}3,2<6[4:1],{8}6<2[4:1],5,{4}4,
{8}4-2-8-6[2:1],1h[4:1],{4}4,{16},,,,4,,,3/5,
,,{8}4/6,{4}3/5V71[4:1],{8}1<5[4:1],2,{4}2,
{8}3,3,2/5,{16}3,4,{8}3,6/1,{16}7,8,{8}7,
4h[16:5]/6h[8:3],{16},,,,3,5,3,5,{8}3h[8:5],{4}4qq2[4:3],
,,{2}3,
{1}4<6[2:1],
E
