&title=1番輝く星
&artist=アーリャ(CV:上坂すみれ)
&first=0.003
&des=MiraT
&lv_5=13
&inote_5=(182)
{16},,,,,,,,4,5,4,5,3,6,2,7,
{8}1h[2:1],,8,7,6,,7,74,
{8},3,3h[2:1]/5,,{12}A1,A8,A7,A6,,,
{8}8h[2:1],,4,3,2,,6,61,
{8},2,2h[2:1]/8,,{12}A4,A5,A6,A7f,,,
{4}1x-4[8:1],8,7x-2[8:1],6,
{4}5x-8[8:1],4,3x-6[8:1],{8}2,2h[8:8],
{8},8,8,7,7,6,6,5,
{8},15,7h[2:1]/3h[2:1],,,,,,
{8}8qq8[4:1],,4,,4,,4,3,
{8}2-8-4[4:1],,6,,6,,6,,
{8}7<2[4:1],,2,,1,1,,8qq4[4:1],
{8},1,2,3,E3,E7,C,,
{8}2v4-6[4:1],,6,,8,,7,7,
{8},3x/A5/A4/E5,,2,,6xh[8:3]/A4/A5/E5,,,
{8}1>4[8:1],,6<1[8:1],,5-1[8:1],,7,,
{8}6,6/2h[8:3],,,6,8-5b[8:1]/4-1b[8:1],,8b/4b,
{8},,7-5[8:1]/3,,72,,7-1[8:1]/3,,
{8}74,,7-5[8:1]/3,,72,1,8,2-8[8:1]/7,
{8},6,6-2[8:1],,4,4,,8qq5[4:1],,3,2,1,B2,B6,C,8h[4:1],
{8},,6/2<8[8:1],,25,,6/2>4[8:1],,27,,6/2<8[8:1],,25,5h[8:3],,,
{8}4>1[4:1],,1<6[4:1],,6>3[4:1],,3-1-6[8:3]*-1-5[8:3],,
{8},,,,{12}3,2,1,8,7,6,
{12}4x/5x,,,3,4,3,4,,,6,5,6,
{12}5,,,2,4,2,5,3,5,4,6,4,
{12}7x,,,2,1,2,1,,,7,8,7,
{12}8,,,1,8,1,7,2,7,3,6,3,
{12}5x,,,4,6,4,7,,,5,3,5,
{12}2,,,3,1,3,8,2,8,1,7,1,
{8}6-2[8:1],,4,4-1[8:1],,8<3[2:1],,8,
{8},,A2,,{12}A1,,8,8b,,,
{8}1-5[8:1],,1/7-4[8:1],,7/3>8[8:1],,36,,
{8}5-1[8:1],,5/2>5[8:1],,2/7-3[8:1],,78,,
{8}1-4[8:1],,1/6-2[8:1],,6/3-8[8:1],,43,,
{8}5w1b[8:1],,,,7h[4:1],,4,4p1[2:1],
{8},,8,8,7,7,6,6,
{8}35,35,26,26,17,17,{16}8,,1x,8x,
{8}1xh[8:1],2h[8:1],3h[8:1],4h[8:1],5h[8:1],6h[8:1],7h[8:1],8,
{8},48,2h[4:1]/6h[4:1],,,,1b/8b,,
{8}6-3[4:1],,3-8-5[2:1],,1,,2,2-6[8:1],
{8},2,,,4w8[8:1],,4,,
{8}6>2[4:1],,2<6[4:1],,6,,2,1v4[8:1]/5-8[8:1],
{8},15,,,3h[4:1],,2h[4:1],,
{8}1>4[8:1],,1q5[8:1],,1v6[8:1],,1,7>6[8:5],
{8},7,,,{24}A8,D1,A1,D2,A2,D3,A3f,,,,,,
{8}8p4[8:1],,3,2-6[8:1],,6,7,8w4[8:1],
{8},,,,6v1[8:1]/2v5[8:1],,6b/2b,,
{8}3-6[4:1],,6-1-4[2:1],,8,,7,7-3[8:1],
{8},7,,,5w1[8:1],,5,,
{8}7x-5-3[8:1],,1,,2x-4-6[8:1],,8,8,
{8}7x<3[8:1],,1,,2x>6[8:1],,8,,
{8}8h[8:3],,,{16}E2,E3,E4f,,,,,,5,,
{8}4h[4:1]/6h[4:1],,,,3,,2,,
{8}1pp5[4:3],,6,6,,,8,8h[8:7],
{8},,,,4h[8:2],,,,
{8}7b-3b[4:2],,,,,,,,
{8}E2,E8,E3,E7,E4,E6,{16}4,3,2,1,
{8}4b/8b-3[8:1],,5,5-1[8:1],,3,2,2>8z4[8:6],
{8},7xh[8:5],,,,,,,
{8},2h[8:1],1h[8:1],3h[8:1],8h[8:1],4h[8:1],7h[8:1],5-1[8:1],
{8},,,,6,7-4[8:1]/8,78,7/1h[8:5],
{8},,,,B3/A3/E4,,,5,,
{8}64,6/4h[8:2],,B1/C/B2,,{16}7,,8,1,
{24}8,,,8x,7x,6x,{8}5xq7[4:1],3,,1,1,1b/8b,
