&title=哈姆太郎火拼黑帮
&artist=ハムちゃんず
&first=0.18000002
&des=SP7
&lv_7=+
&inote_1=
&inote_2=
&inote_3=
&inote_4=
&inote_7=(140){1},,,{4},,,,
5,4,5,4,5,4,5,4,5,4,5,4,5,4,5,4,
{6}5,4,5,4,5,4,5,4,5,4,5,4,
{8}5,4,5,4,5,4,5,4,5,4,5,4,5h[4:42]/4h[4:42],,,,
{16}A8,E4,B6,B2,E8,E3,A5,E1,
E6,B1,A7,C1,B5,E2,C2,E4,
B8,E4,B6,A2,E8,E3,B5,E1,
E6,A1,B7,C1,B5,E2,C2,E4,
A8,E4,B6,B2,E8,E3,A5,E1,
E6,B1,A7,C1,B5,E2,C2,E4,
B8,E4,B6,A2,E8,E3,B5,E1,
E6,A1,B7,C1,B5,E2,C2,E4,
A8,E4,B6,B2,E8,E3,A5,E1,
E6,B1,A7,C1,B5,E2,C2,E4,
B8,E4,B6,A2,E8,E3,B5,E1,
E6,A1,B7,C1,B5,E2,C2,E4,
A8,E4,B6,B2,E8,E3,A5,E1,
E6,B1,A7,C1,B5,E2,C2,E4,
B8,E4,B6,A2,E8,E3,B5,E1,
E6,A1,B7,C1,B5,E2,C2,E4,
A8,E4,B6,B2,E8,E3,A5,E1,
E6,B1,A7,C1,B5,E2,C2,E4,
B8,E4,B6,A2,E8,E3,B5,E1,
E6,A1,B7,C1,B5,E2,C2,E4,
{8}5,4,5,4,5,4,5,4,5,4,5,4,5h[4:40]/4h[4:40],,,,
{16}B1,E5,A3,B7,E1,E6,B4,E8,
E3,B8,B2,C1,A4,E7,C2,A5,
A1,E5,A3,B7,E1,E6,A4,E8,
E3,B8,B2,C1,B4,E7,C2,E5,
A1,E5,B3,B7,E1,E6,A4,E8,
E3,B8,A2,C1,B4,E7,C2,E5,
B1,E5,B3,A7,E1,E6,B4,E8,
E3,A8,B2,C1,B4,E7,C2,E5,
B1,E5,A3,B7,E1,E6,B4,E8,
E3,B8,B2,C1,A4,E7,C2,A5,
A1,E5,A3,B7,E1,E6,A4,E8,
E3,B8,B2,C1,B4,E7,C2,E5,
A1,E5,B3,B7,E1,E6,A4,E8,
E3,B8,A2,C1,B4,E7,C2,E5,
B1,E5,B3,A7,E1,E6,B4,E8,
E3,A8,B2,C1,B4,E7,C2,E5,
B1,E5,A3,B7,E1,E6,B4,E8,
E3,B8,B2,C1,A4,E7,C2,A5,
A1,E5,A3,B7,E1,E6,A4,E8,
E3,B8,B2,C1,B4,E7,C2,E5,
{8}5,4,5,4,5,4,5,4,5,4,5,4,5h[4:18]/4h[4:18],,,,
{4}B8/A8/E8/E1,B2/B3/D3/A3/E4,
C1/B1/E2/B2/E1,B7/B5/D7/E7,
A8/A1/D1/E1/B1,C1/B5/B6/E7/A6,
E5/B4/A4/D5,E3/E2/E1/B1,
B4/A4/E4/E5,B6/B7/D7/A7/E8,
C1/B5/E6/B6/E5,B3/B1/D3/E3,
A4/A5/D5/E5/B5,C1/B1/B2/E3/A2,
E1/B8/A8/D1,E7/E6/E5/B5,
{32}E6/E4,B6/B3,B2/B7,E2f/E8f,,,,,
{4},,,{1}4h[4:11]/5h[4:11],
{4}A8/A1/D1/E1/B1,C1/B5/B6/E7/A6,
E5/B4/A4/D5,E3/E2/E1/B1,
B4/A4/E4/E5,B6/B7/D7/A7/E8,
C1/B5/E6/B6/E5,B3/B1/D3/E3,
{8}5,4,5h[8:5],4h[8:4],B8f,E3f,C2f,A1f,
5,4,5h[8:5],4h[2:1],A3f,E6f,B1f,B5f,
{4}54,54,54,,,,,,4h[2:1]/5h[2:1],,,4b/5b,
{32}A8/5,E4,B6/4,B2,E8/5,E3,A5/4,E1,
E6/5,B1,A7/4,C1,B5/5,E2,C2/4,E4,
B8/5,E4,B6/4,A2,E8/5,E3,B5/4,E1,
E6/5,A1,B7/4,C1,B5/5,E2,C2/4,E4,
B1/5,E5,A3/4,B7,E1/5,E6,B4/4,E8,
E3/5,B8,B2/4,C1,A4/5,E7,C2/4,A5,
A1/5,E5,A3/4,B7,E1/5,E6,A4/4,E8,
E3/5,B8,B2/4,C1,B4/5,E7,C2/4,E5,
A8/5,E4,B6/4,B2,E8/5,E3,A5/4,E1,
E6/5,B1,A7/4,C1,B5/5,E2,C2/4,E4,
B8/5,E4,B6/4,A2,E8/5,E3,B5/4,E1,
E6/5,A1,B7/4,C1,B5/5,E2,C2/4,E4,
B1/5,E5,A3/4,B7,E1/5,E6,B4/4,E8,
E3/5,B8,B2/4,C1,A4/5,E7,C2/4,A5,
A1/5,E5,A3/4,B7,E1/5,E6,A4/4,E8,
E3/5,B8,B2/4,C1,B4/5,E7,C2/4,E5,
A8/5,E4,B6/4,B2,E8/5,E3,A5/4,E1,
E6/5,B1,A7/4,C1,B5/5,E2,C2/4,E4,
B8/5,E4,B6/4,A2,E8/5,E3,B5/4,E1,
E6/5,A1,B7/4,C1,B5/5,E2,C2/4,E4,
B1/5,E5,A3/4,B7,E1/5,E6,B4/4,E8,
E3/5,B8,B2/4,C1,A4/5,E7,C2/4,A5,
A1/5,E5,A3/4,B7,E1/5,E6,A4/4,E8,
E3/5,B8,B2/4,C1,B4/5,E7,C2/4,E5,
A8/5,E4,B6/4,B2,E8/5,E3,A5/4,E1,
E6/5,B1,A7/4,C1,B5/5,E2,C2/4,E4,
B8/5,E4,B6/4,A2,E8/5,E3,B5/4,E1,
E6/5,A1,B7/4,C1,B5/5,E2,C2/4,E4,
B1/5,E5,A3/4,B7,E1/5,E6,B4/4,E8,
E3/5,B8,B2/4,C1,A4/5,E7,C2/4,A5,
A1/5,E5,A3/4,B7,E1/5,E6,A4/4,E8,
E3/5,B8,B2/4,C1,B4/5,E7,C2/4,E5,
A8/5,E4,B6/4,B2,E8/5,E3,A5/4,E1,
E6/5,B1,A7/4,C1,B5/5,E2,C2/4,E4,
B8/5,E4,B6/4,A2,E8/5,E3,B5/4,E1,
E6/5,A1,B7/4,C1,B5/5,E2,C2/4,E4,
B1/5,E5,A3/4,B7,E1/5,E6,B4/4,E8,
E3/5,B8,B2/4,C1,A4/5,E7,C2/4,A5,
A1/5,E5,A3/4,B7,E1/5,E6,A4/4,E8,
E3/5,B8,B2/4,C1,B4/5,E7,C2/4,E5,
{8}5,4,5,4,5,4,5,4,5,4,5,4,5,4,5,4,
{8}5,4,5h[8:5],4h[8:4],B8f,E3f,C2f,A1f,
5,4,5h[8:5],4h[2:1],A3f,E6f,B1f,B5f,
{64}
A8/5,E4,B6/4,B2,E8/5,E3,A5/4,E1,
E6/5,B1,A7/4,C1,B5/5,E2,C2/4,E4,
B8/5,E4,B6/4,A2,E8/5,E3,B5/4,E1,
E6/5,A1,B7/4,C1,B5/5,E2,C2/4,E4,
B1/5,E5,A3/4,B7,E1/5,E6,B4/4,E8,
E3/5,B8,B2/4,C1,A4/5,E7,C2/4,A5,
A1/5,E5,A3/4,B7,E1/5,E6,A4/4,E8,
E3/5,B8,B2/4,C1,B4/5,E7,C2/4,E5,
{1}E1/B8/E5/B4/E8/B7/E4/B3/E7/B6/E3/B2/E2/B1/E6/E5/C1f,,,,,,
E
