&title=Aurgelmir
&artist=溝口ゆうま; 大瀬良あい
&first=-0.085
&des=不做无法实现的梦
&lv_5=14
&inote_5=(143)
{4},
{12}3/6h[4:1],,,4,4,7,5^2[8:1],,,6,,,1/5h[4:1],,,8,8,6,7-4[8:1],,,8,,,
3/7h[4:1],,,1,1,6,8^3[8:1],,,7,,,8qq1[8:3]/4qq5[8:3],,,,,,,,,8,,3,
6/2h[4:1],,,4-7[8:1],,4,1-5[8:1],,,8h[4:1],,,6-1[4:1],,,1^4[4:1],,,4q5[16:5],,,6,,,
8h[4:1],,,5-2[8:1],,5,8-4[8:1],,,1,,,
(122)
3b/6b,,,1s5[4:1]/8z4[4:1],27,36,,,,,,,
(200)
5h[6:1]/6b,,7,4,6h[6:1],,1,,5,,2,,4h[6:1]/3b,,2,5,3h[6:1],,8,,4,,7,,
5b/6,,3,3,4h[6:1],,2b,,35,,53,,7,68,,2,31,,7b/8b,,16,,2h[128:1]/5h[128:1],,
3/4,,4,3,4,,4,6,4,,5,,47,,6,5,6,,6,8,6,,7,,85,,2,1,2,,2,4,2,,3,,
(150)
7h,5,1,3h,6,8,4h,4,7,5,3,1,(133)4h/8,7,6,1h/5,2,3,8^5[8:1]/4^1[8:1],,,,,,
(180)
{8}2qq1[32:7],2,6,5h[4:1],,2-5[8:1],7,8h[4:1],,4,7q5[32:7],4,3,2,1,1h[4:1],,
{16}6,8,6,,1,3,{8}1-5[8:1],5^2[8:1],7,7h[4:1],,{16}2,1,2,,38,,8/3h[4:1],,,,
1-5[8:1],8,7,6,{8}1b^6[8:1],,3-7[8:1],,3b^6[8:1],,1,2,2b-6[8:1],,7,8,
{16}7b-4[8:1],,,4,7,,2,,5/1b,,6,,48,,2,,3/5b,,7,,64,,2,,3b,5,3,6,3b,7,3,8,1b,4,1,5,1b,6,1,,
2h[4:1],,,,7,6,5,4,8,1,2,3,5,6,7,8,41,2,3,4,58,6,7,8,2,3,6,5,3,4,7,6,
{8}1h[4:1],,8-4[8:1],7-5[32:3],8-2[32:3],7-3[8:1],8,7,1,4^7[8:1],2,4,{16}3,,,82,82,,1,,
7h[4:1],,,,2,3,4,5,1,8,7,6,4,3,2,1,58,7,6,5,41,3,2,1,7,6,3,4,6,5,2,3,
{8}7-4[8:1],1,7,8-3[8:1],5,8,6-1[8:1],4,6,2-5[8:1],8,2,7,{16}7,8,1,2,3,4,
{8}8b/5qq6[8:7],,,,,,8,,1,,2-5[8:1],,2b/7q1[8:7],,,,,,6,,5,,4,,
3xq8[2:1],,7,,7,,6^3[16:5],,1,,2,,2xh[2:1]/5h[2:1],,,,,3,
6,5,4,3,{24}5,4,5,4,5,4,
{8}5b,3h[4:1],4,6,{16}2,5,2h[4:1],,4,,4,,15,,7-3[8:1],,3-7[8:1],,7,,1,,1,,2xh[4:1],,,,
{16}7b-1[8:1],,,7,5,,5,,8-6[8:1],,,8,3,,3,,4,4,6h[16:3],,2,2,8h[16:3],,3,3,1,1,5,5,7,7,
3b,,5,5,5,,6b/3,,4h,4h,4h,,2b/5,,6,6,6,,7b/3,,2h,2h,2h,,1xb/4,,,2,5,,43,,
7h[8:1]/5h[8:1],,,7h[8:1]/8h[8:1],,,8h[8:1]/4h[8:1],,,4h[8:1]/3h[8:1],,,13,,13,,
2b,,,,8b/4b,,,6,6h[16:3],,1,1h[16:3],,3,3h[16:3],,8,8h[16:3],,5,5h[16:3],,2,2h[16:3],,7,7h[8:1],,3b,,,,{24}5,4,5,,4,,5,4,5,4,5,4,{8}5-1b[8:1],,5-2[8:1],,
8b-4^7[4:1],,8,2pp1[4:1],,2,7,7h[4:1],,1-5[8:1],8-6[32:3],1,8>3[8:1],,68,7,
7-3[8:1],,7/2^5[8:1],,1^7[8:1]*-5[8:1]/2,,,,64,3^8[8:1],5V37[4:1],3,5,,,{16}1,,
{8}8bh[4:1]/2,,1,6,{16}8b/7,,,1,6,,4,,3bh[4:1]/5,,,,5,,6,2,8b,,3,5b,,4,7b,,
1b,,16,,1,,41,,1b,,71,,1,,31,,2b,5,2,6,2b,7,2,8,{24}2,3,4,8,7,6,1,2,3,7,6,5,
{8}8^3[8:1],4-8[8:1],,4^7[8:1],2pp4[32:5],,2-8[8:1],7-3[8:1],,7,8^3[8:1],,{16}5b/8,,,7b,,,1b,,
{8}2V41[16:3],8,7-4[8:1],,7v8[32:5],,2-4[8:1],1,2-8[8:1],7,6v5[32:5],,8V24[16:3],,8,,
8b^5[8:1],4-8[8:1],,4^1[8:1],6qq4[32:5],,6-8[8:1],1-5[8:1],,1,8-4[8:1],,{16}4/8,,,2,,,8,,
{8}6b,56,6,68,6,64,6,16,{12}7,5,5,6,8,8,4,2,2,1-5[32:5],3,3,
(143){4}7xs3[2:1],,,,{12}64,46,64,37,73,73,
{24}2,8,2,8,2,8,{32}1v2^3b[4:1],7,1,7,1,7^6v5[32:7],1,7,(180){8},,,,8x^3[8:1]`8?>2[12:1]`8?>1[24:1],,8b^5b[8:1],,
4-1[8:1],,4b,5pp4[4:1],,5,2,2h[4:1],,4-8[8:1],3-1[32:3],4,3<6[8:1],,13,2,
2-6[8:1],,2/5^8[8:1],,4^2[8:1]*-8[8:1]/5,,,,17,6^4[8:1],8^2-6[4:1],6,8,,,{16}7,,
7b,,,8b,5,,3b/6,,4b^7[8:1],,,4,1b,,3b,,2b,,,4b,8,,8b,6,,6b,3,,4b,,2b,,
8b,,83,,8,,58,,8b,,28,,8,,68,,7b,4,7,3,7b,2,7,1,6b,8,6,8,{24}5,1,5,{16}1,,
2bh[4:1]/4h[4:1],,,,,,7,,8bh[4:1]/5h[4:1],,,,,,3,,2bh[4:1]/6h[4:1],,,,,,5,,
1b-5[8:1],,,1b,6,,8b,,7b,,56,,54,,34,,5/2b,,36,,47,,58,,4,7,4,7,{24}3,5,3,5,3,5,
{16}3,,,64,6/4-7[32:5],,2qq5[4:5]/5,,
(230){1},,
{12}8,6,8,6,7,,7,1,7,1,8,,8,2,7,3,6,3,5,2,6,1,7,7,2,4,2,4,3,,3,1,3,1,2,,
2,8,3,7,4,7,5,8,6,1,5,5,2,4,2,4,3,,3,1,3,1,2,,6,8,6,8,7,,7,5,7,5,6,,
3,3,4,2,5,1,6,6,5,7,4,8,3,3,5,2,6,1,7,7,1,6,2,5,3,3,3,3,3,3,3,3,3,3b,,,
4,4,4,4,4,4,4,4,4,4b,,,35,,53,,6,6,74,,47,,3,3,5,2,6,1,7,8,8,8,8,8,8,8w4[100#12:1],
{4},,8b<1[1:3]*>7[1:3],,{1},,,
{12}8,3,3,1,1,6,6,
