&title=Hop? Stop? Nonstop! (高海千歌 Solo Ver.)
&artist=伊波杏樹
&first=-0.32999948
&des=高海千歌我喜欢你呀
&lv_5=13+
&inote_5=(162)
{16},,,,
,,,,
,,,,
,,,,
{16},,,,
,,,,
,,,,
,,,,
{16}3h[16:3]/4h[8:1],,,,3h[16:3]/5h[8:1],,,,6h[16:3]/5h[8:1],,,,6h[16:3]/4h[8:1],,,,
{16}3h[16:3]/4h[8:1],,,,3h[16:3]/5h[8:1],,,,6/5,,B1/B2,,B1/B2,,,,
{16}6h[16:3]/5h[8:1],,,,6h[16:3]/4h[8:1],,,,3h[16:3]/4h[8:1],,,,3h[4:3]/5,,B5,,
{16},,B6,,,,B7,,8,,B8/B7,,B8/B7,,,,
{16}25,,3,4,3,,6,5,6,,3,4,3,,5,,
{16}74,,6,5,6,,3,4,3,,6,5,6,,4,,
{16}25,,2,4,3,,7,5,6,,2,4,3,,5h[2:1],,
{16},,2,,3,,3,,4w8[8:1]b,,,,4bx,,,,
||开头记得压难度
{16}2V48[4:1],,,,8-6[8:1],,,,6,,,,5pp8[8:3],,5,,
{16},,1,,,,3pp1^2[8:3],,3,,,,8,,,,
{16}6V84[4:1],,,,4-2[8:1],,,,2,,,,4qq1[8:3],,4,,
{16},,7,,,,7,,8,,,,2h[8:3],,,,
||进主歌前跟人声没有问题,但是要补全一些正拍,权衡一下
{16}7x,,7x,,7x/B3/B4,,6x,,,,25,,,,3,,
{16}5h[4:3]/4,,,B3/B4/E4,
,,B5/B6/E6,,
,B1/B2/E2,,,B7/B8/E8,,,B3/B4/E4,
{16}5x-1[4:3],,,,
,,,,
,,,,
,,,,
{16}4,,,,
,,,,
6,,3,3,
4,,,,
{16}1,,,,
6h[8:1],,7,,
6h[8:1],,5,,
6h[8:1],,7,,
{16}1-4[8:1],,,,
7,,1qq4[4:2],,
,,3,,
4,,,,
||主歌只强调这四下人声,其他都往鼓的感觉走,避免漏掉正拍
{16}3,,,,
5h[8:1],,4,,5h[8:1],,3,,5h[8:1],,4,,
{16}5-7[8:1],,,,5,,1q5[8:1],,8,,1,,7,,6,,
{16}6,,,,
6h[8:1],,7,,
6h[8:1],,4,,
6h[8:1],,5,,
{16}3qq4[8:3],,,,
3,,5pp4[8:3],,
,,5,,
3,,,,
{16}2,,,,
,,35,,
3h[4:1]/5h[4:1],,,,
,,1h[2:1],,
{16},,5,,
6,,7,,
8v5[8:1]/2v5[8:1],,3,,8b/2b,,,,
{16}4x,,,,3h[4:1],,1,,4h[4:1],,1,,3x-1[8:1],,2,,
{16}5x-7[8:1],,6,,3x-1[8:1],,2,,5xw1[8:1],,6,,5bx,,,,
{16}7,,,,3h[8:1],,2,,3h[8:1],,5,,3h[8:1],,4,,
{16}2>5[8:1],,,,2,,6qq8[4:1],,
,,6,,4x,,,,
{16}1,,,,2xpp4[4:1],,,,5,,6x,,7x-5[8:1],,8,,
{16}2x-4[8:1],,1,,7pp8x-5[4:1],,8,,7bx/2bx,,,,
4x,,,,
{16}7h[4:1],,,,
,,46,,
4h[4:1]/6h[4:1],,,,
,,5h[4:3],,
{16},,4,,
3,,2,,
1,,C,,
Cf,,,,
{16}3x>6[2:1],,,,
,,4,,
4,,,,5,,,,
{16}3x>6[2:1],,,,
,,4,,
4,,5,,
,,,,
{16}5<2[4:1],,,,
,,,,
4>7[4:1],,,,
5,,5,,
||可以适当点一下人声,也可以不点
{16}6,,1x,,1x,,5,,
2,,3,,
4x/7x,,,,
{16}2p4[4:1],,,,
4>8[4:1],,4,,
,,6,,
6,,,,
{16}7q5[4:1],,,,
5<1[4:1],,5,,
,,3,,
3,,,,
{16}2h[4:3]/5,,B6,,
,,B4,,
,,B5,,
,,B3,,
{16}3x<6[4:1],,,,6p8[4:1],,,,8>3[4:1],,,,7,,,,
{16}7^5-1[8:3],,5,
,,,1^3-7[8:3],,
3,,,,
7^5[8:1],,5-1[4:1],,
{16},,4,,3,,3,,{32}A2,A3,A4,A5,A6,A7,A8,A1,A2f,,,,7bxp3[8:1]
,,,,
{16},,8,,2>5[8:1],,1
,,6pp5[4:1],,8,,2,,3,,
{16}4-1[8:1],,,,4>7[4:1],,,,7>4[4:1],,,,6,,,,
{16}5-8[8:1],,,,5<2[4:1],,,,2<5[4:1],,,,3,,,,
{16}4bxpp6[4:1]b,,,,3bx,,,,
2bxqq8[4:1]b,,,,
1bx,,,,
||副歌的这几组回环往复的音可以想办法写复踏
{16}2p6[8:1],,,,
8v5[8:1],,8,,
2q6[8:1],,,,
4v1[8:1],,4,,
{16}2q7[4:1],,,,7p2[4:1],,,,6,
,,,5pp6[8:1],,,,
{8}5bx/1x,1pp2[8:1],,1bx/5x,5pp6[8:1],,5bx[8:1]/1x,1h[2:1],
{16},,7,,7,,6,,5-1[8:1]b,,,,5x,,
{16}2bxq6[8:1],,,,1,,7<4[8:1],,8,,3qq4[4:1],,1,,7,,6,,
{16}5-8[8:1],,,,5<2[4:1],,,,2q7[4:1]b,,,,4,,,,
{16}4-1[8:1],,,,4>7[4:1],,,,7p2[4:1]b,,,,5,,,,
{16}5-3[8:1],,,,6-2[8:1]*-2[8:1],,,,7b-1[8:1]b,,,,
,,,,
||为了避免卡拉ok可能得在这里想办法过渡换轨
{16}2,,3,4,
3,,6,5,
6,,3,4,
3,,25,,
{16}1,,3,4,
3,,6,5,
6,,74,,74,,3,4,
{16}3V17[8:1],,,,
3x/4,,5<2[4:1],,
,,2,,3x,,4,,
{16}5>2[4:1],,,,2<7[4:1],,,,7<4[4:1],,,,
{16}4pp1[8:5]b,,,,
8,,8,,
,,7,,
,,6,,
{16}5w1[8:1],,,,Cf,,,,
,,,,
7,8,7,8,5,4,5,4,
{16}6q7[2:1],,,,
,,2,,2h[16:6],,,,,,8,,
{16},,81,,
,,3,,
3,,4,,
5,,6,,
{16}6q5[2:1],,,,
,,2,,2,,,,3,,3,,
{16}3,,4,5,
3,,6,,
2,,3,4,
2,,5,,
{16}3xqq4[2:1],,,,
,,5,,
5,,,,
6,,,,
{16}7pp2[2:1],,7,,
,,3,,
3,,,,
4,,,,
{8}3-1v8-6[2:1]b,,,7,7,,5,,
{16}3b,,4,5,
3,,6,,
2b,,3,4,
2,,5,,
{16}3qq8[2:1],,,,
4,,4,,
,,5,,
5,,,,
{16}5q8[2:1],,,,
4,,4,,
,,3,,
3,,2,3,
{16}4qq1[2:1],,,,
5,,5,,
,,6,,
6,,,,
{16}7<4[4:1],,,,
4q1[4:1],,,,1,,1,,
2,,2,8,
{16}2-8-6-4-2[4:4],,,,
,,5,,
5x,,6,,
,,,,
{16}2<2[4:3]b,,,,
,,5,,6h[8:1],,,,
6hx[8:1],,,,
||这两句要抉择一下采人声还是继续鼓,我倾向于不要人声
{16}1>4[8:1],,1,,
1x<6[8:1],,,,
1x,,,,
8<5[8:1],,8,,
8x>3[8:1],,,,
8,,6,6,
{16}4,,5,,
3,,5,,
{16}2x/4x,,2hx[8:1]/4hx[8:1],,
,,3h[8:1]/5h[8:1],,
,,4h[8:1]/6h[8:1],,
,,5h[8:1]/7h[8:1],,
{16},,6,5,6,
,3,4,3,4,2,,2,
,1h[8:1]/5h[2:1],,
||这两句要抉择一下采人声还是继续弦乐,我倾向于不要人声
{8},2,3,3,{32}A4,A5,A6,A7,A8,A1,A2,A3,
{8}A4f,7bxp3[8:1],
{16},,8,,2v5[8:1],,1
,,6pp7[8:1],,1,,2>5[4:1],,3,,
{16}6V42[4:1],,,,1>5[4:1],,,,6,,,,7<4[4:1],,,,
{16}3V57[4:1],,,,8<4[4:1],,,,3,,,,2,,,,
{16}4bxv7[8:1]b,,,,
4bx/3bx,,,,
2bxv5[8:1]b,,,,
7bx-1[8:1]/2bx-6[8:1],,,,
{8}2-4[8:1]/7,,7-1[8:1]/2-6[8:1],8,27,,8xz4[4:1],2,
{8}4<8[4:1],,8>4[4:1],,4,,1,,
{32}7b/1b,6,5,4,1b,,,,,,,,2b/8b,3,4,5,8b,,,,,,,,7b/1b,6,5,4,1bh[2:1],,,,
{8},7,7,6,5-1[8:1]b,,{16}5bx,,
{8}2bxq6[8:1],
{16},,1,,7v4[8:1],,8
,,3qq2[8:1],,8,,7<4[4:1],,6,,
{16}3V57[4:1],,,,8<4[4:1],,,,3,,,,2>5[4:1],,,,
{16}6V42[4:1],,,,1>5[4:1],,,,6,,,,7,,,,
{4}4-6[8:1],3-7[8:1]*-7[8:1],2b-8[8:1]b,,
{16}1,,7,5,6,,2,4,3,,7,5,6,,74,,
{16}8,,2,4,3,,7,5,6,,47,,47,,5,4,
{16}6V82[8:1],,,,
6x/5,,4>7[4:1],,
,,7,,6x,,5,,
{16}4<7[4:1],,,,7>2[4:1],,,,2>5[4:1],,,,
{16}5qq8[8:5]b,,,,
1,,1,,
,,2,,
,,3,,
{16}4w8[8:1]b,,,,Cf,,,,
,,,,
2,3,4,5,8,7,6,5,
{16}2V48[4:1],,,,8-6[8:1],,,,6,,,,5pp8[8:3],,5,,
{16},,1,,,,3pp1^2[8:3],,3,,,,8,,,,
{16}6V84[4:1],,,,4-2[8:1],,,,2,,,,4qq1[8:3],,4,,
{16},,7,,,,7,,8,,,,2h[8:3],,,,
{16}7x,,7x,,7x/B3/B4,,6x,,,,25,,,,3,,
{16}5h[4:3]/4,,,3x,
,,7x,,
,2x,,,
8x,,,1x,
{8}C,,,E6,B5,B4,B3,B2,,E6,E7,E8,E1,E2,E3,E4,{24}E6,B5,B4,E4,
E
