&title=ズットキット・プライマリ
&artist=sasakure.UK feat. PRIME
&first=0
&des=Dororo
&lv_5=13+
&inote_5=(157)
{16}
,,,,,,,,,,,,,,,,
6p5[2:1],,,,,,,,,,,,,,,,
6pp5[2:1],,,,,,,,,,,,,,,,
7pp5[2:1],,,,,,,,,,,,,,,,
2V48[4:1],,,,,,,,6V48[4:1],,,,,,,,
3q4[2:1],,,,,,,,,,,,,,,,
3qq4[2:1],,,,,,,,,,,,,,,,
2qq4[2:1],,,,,,,,,,,,,,,,
1h[256:1],8h[256:1],1h[256:1],8h[256:1],1h[256:1],8h[256:1],1h[256:1],8h[256:1],2,4,3,5,4,6,5,7,
2-5[8:1]/8,,,1,2,,1,,7,5,6,5,7,,8,,
3-8[8:1]/8,,,4,3,,4,,7,8,,8,7,,6,,
2^5[8:1]/6,,,1,2,,1,,7,5,6,5,7,,8,,
8-6[8:1]/3,,,1,8,,1,,2-4[8:1]/7,,,1,2,,1,,
7-4[8:1]/1,,,8,7,,8,,2,4,3,4,2,,1,,
6-1[8:1]/1,,,5,6,,5,,2,1,,1,2,,3,,
7^4[8:1]/3,,,8,7,,8,,2,4,3,4,2,,1,,
1-5[2:1]/5,,,,,,,,7b,,,,,,,,
3^6[2:1],,,,,,,,8,,,,,,,,
3^6[2:1],,,,,,,,1,,,,,,,,
3^6[2:1],,,,,,,,8,,,,,,,,
3^6[2:1],,,,2,,,,1,,,,8,,,,
7^2[2:1],,,,,,,,4,,,,,,,,
7^2[2:1],,,,,,,,5,,,,,,,,
7^2[2:1],,,,,,,,4,,,,,,,,
6<3[2:1],,,,,,,,,,,,6b,,,,
25,,3,4,3,,78,,2h[8:1],,3h[8:1],,4h[8:1],,5,,
26,,1,8,1,,35,,6h[8:1],,7h[8:1],,8h[8:1],,1,,
25,,3,4,3,,78,,7-4[8:1],,,,7,,1-5[8:1],,
,,1,,8,,7h[8:3],,,,6,,6,,,,
74,,6,5,6,,21,,7h[8:1],,6h[8:1],,5h[8:1],,4,,
73,,8,1,8,,64,,3h[8:1],,2h[8:1],,1h[8:1],,8,,
74,,6,5,6,,21,,2-5[8:1],,,,2,,8-4[8:1],,
8-2[8:1],,8-6[8:1],,,,,,,,35,,35,,2,1,
3,,1,8,2h[2:1],,3,,4,,5,,6,,1-4[8:1],,
1,,1-6[8:1],,,,,,,,3b,,3b,,7,8,
6,,8,1,7h[2:1],,6,,5,,4,,3,,8^5[8:1],,
8,,8^3[8:1],,,,,,,,6b,,6b,,2,,
2^5[8:1],,1,,8,,7,
,6^1[8:1],,5,,4,,3,,
2,,2-5[8:1],,,,6-1[8:1],,,,3bV51[4:1],,3b,,7,,
7h[4:3],,,,,,3h[8:3],,,,,,,,3>7[8:3]/7<3[8:3],,
,,,,,,,,,,,,5b,,,,
2-5[8:1],,1,,8-4[8:1],,1,,2-6[8:1],,1,,8-5[8:1],,1,,
4^2[8:1],,4pp8[8:3],,,,,,,,,,,,1,2,
3h[4:1],,7,6,5h[4:1],,8,,8-4[8:1],,1,,2,,3,,
3qq4[4:1]/5pp4[4:1],,,,,,,,,,5,2,6,3,7,4,
7-4[8:1],,8,,1-5[8:1],,8,,7-3[8:1],,8,,1-4[8:1],,8,,
5^7[8:1],,5qq1[8:3],,,,,,,,,,,,8,,
46,,2,,35,,1,,1-5[8:1],,8,,7,,6,,
6-2[8:1]/3-5[8:1],,,,36,,,,1-7[8:1]/6-2[8:1],,,,16,,,,
{24}
3h[4:1],,,7,6,5,4,,,25,,,7h[4:1],,,1,2,3,4,,,38,,,
{16}
6,5,7,5,8,,17,,4,6,5,6,3,,24,,
{24}
3h[4:1],,,7,6,5,4,,,25,,,7h[4:1],,,1,2,3,4,,,38,,,
{16}
1,2,8,2,7,,68,,2,1,3,1,
{32}
4,5,6,7,8,1,2,3,
{24}
6h[4:1],,,2,3,4,5,,,74,,,2h[4:1],,,8,7,6,5,,,61,,,
{16}
3,4,2,4,1,,82,,5,3,4,3,6,,75,,
{24}
6h[4:1],,,2,3,4,5,,,74,,,2h[4:1],,,8,7,6,5,,,61,,,
{16}
8,7,1,7,2,,31,,7,8,6,1,5,2,4,3,
2<3[1:3]/5h[4:1],,,,,,,,4h[4:1],,,,,,,,
3h[4:1],,,,,,,,2h[4:1],,,,,,,,
1h[4:1],,,,,,,,8h[4:1],,,,,,,,
7h[4:1],,,,,,,,6h[4:1]/5h[4:1],,,,,,,,
7>6[1:3]/4h[4:1],,,,,,,,5h[4:1],,,,,,,,
6h[4:1],,,,,,,,7h[4:1],,,,,,,,
8h[4:1],,,,,,,,1h[4:1],,,,,,,,
2h[4:1],,,,,,,,3h[4:1]/4h[4:1],,,,,,,,
2b-5[2:1],,,,8,,,,8,,,,8,,,,
5b-2[2:1],,,,8,,,,8,,,,8,,,,
7b-4[2:1],,,,1,,,,1,,,,1,,,,
4b-7[2:1],,,,1,,,,1,,,,1,,,,
2bV48[2:1],,,,4,,,,5,,,,6,,,,
7bV51[2:1],,,,5,,,,4,,,,3,,,,
1/2-5[8:1],,1/2h[4:1],,,,,,3-8[8:1]/4,,3h[4:1]/4,,,,,,
8/7-4[8:1],,8/7h[4:1],,,,,,6-1[8:1]/5,,6h[4:1]/5,,,,,,
2^4[4:1],,,,4^6[4:1],,,,6^8[4:1],,,,8^2[4:1],,,,
2^5[4:1],,,,5^8[4:1],,,,8^3[4:1],,,,3^6[4:1],,,,
6<2[4:1],,,,2>7[4:1],,,,7>5[4:1],,,,,,,,
{24}
6,7,8,1,2,3,4,5,6,7,8,1,
{32}
2,3,4,5,6,7,8,1,2b,,,,,,,,
{16}
7^4[8:1],,8,,1q5[8:1],,8,,7p3[8:1],,8,,1^4[8:1],,8,,
7-4[8:1],,8pp4[8:3],,7,,8,,,,,,,,8,7,
6h[4:1],,2,3,4h[4:1],,1,,1-5[8:1],,8-6[8:1],,1,,8,,
4pp4[4:1]*qq4[4:1],,,,4,,,,,,4,7,3,6,2,5,
2^5[8:1],,1,,8p4[8:1],,1,,2q6[8:1],,1,,8^5[8:1],,1,,
2-5[8:1],,1qq5[8:3],,2,,1,,,,,,,,1,,
53,,7,,64,,2-4[8:1],,4-8[8:1],,2,,6,,6,,
1v4[8:1]/7v4[8:1],,,,1V38[4:1]/7V58[4:1],,,,1b/7b,,,,,,,,
1-5[8:1],,2,,6-3[8:1]/1,,7,,8-4[8:1]/6,,1,,7-2[8:1]/8,,6,,
3qq6[2:1]/7,,4q5[8:3],,3,,4,,,,,,,,8-3[8:1],,
1,,8p5[8:3]/6,,7,,82,,,,4,,3,,2,,
1^4[8:1]*^6[8:1],,28,,1b,,,,7,4,5,2,8,3,6,1,
8-4[8:1],,7,,3-6[8:1]/8,,2,,1-5[8:1]/3,,8,,2-7[8:1]/1,,3,,
6pp3[2:1]/2,,5p4[8:3],,6,,5,,,,,,,,1-6[8:1],,
8,,1-4[8:1]/3,,2,,1s5[4:1]/7,,8,,13,,2,,3,,
4b-8[8:1],,,,4b^1[8:1]*^7[8:1],,,,4bw8[8:1],,,,4b,,,,
{24}
6-1[8:1],,,5,7,5,6,,,3,,,2-5[8:1],,,8,1,8,2,,,7,,,
{16}
6-8[8:1],4,5,4,6,,3,,3-5[8:1],1,2,1,3,,8,,
{24}
3-8[8:1],,,5,2,5,3,,,6,,,7-3[8:1],,,1,8,1,7,,,2,,,
{16}
1-5[8:1],8,2,8,1,,6,,7,8,6,8,
{32}
5,4,3,2,1,8,7,6,
{24}
3-8[8:1],,,4,2,4,3,,,6,,,7-4[8:1],,,1,8,1,7,,,2,,,
{16}
3-1[8:1],5,4,5,3,,6,,6-4[8:1],8,7,8,6,,1,,
{24}
6-1[8:1],,,4,7,4,6,,,3,,,2-6[8:1],,,8,1,8,2,,,7,,,
{16}
8-4[8:1],1,7,1,8,,3,,2,1,3,8,4qq8[2:1],7,5,6,
4b,,,,,,,,5,,5h[4:1],,,,2,1,
2h[8:3],,,,,,3,2,4,3,5,4,6,5,7,6,
{24}
8,,,8h[4:1],,,5,4,3,2h[4:1],,,7,,,4h[4:1],,,1,,,3h[4:1],,,
8,7,6,5h[4:1],,,2,,,4h[4:1],,,7,,,6,,,
{16}
5pp1[2:1],2,4,3,
5b,,,,,,,,4,,4h[4:1],,,,7,8,
7h[8:3],,,,,,6,7,5,6,4,5,3,4,2,3,
{24}
1,,,1h[4:1],,,4,5,6,7h[4:1],,,2,,,5h[4:1],,,8,,,6h[4:1],,,
1,2,3,4h[4:1],,,7,,,5h[4:1],,,2,,,3,,,
{32}
4,3,2,1,8,7,6,5,
{16}
4qq4[2:1],,,,,,,,,,,,,,,,
8q8[2:1],,,,,,,,,,,,,,,,
2pp1[2:1],,,,,,,,,,,,,,,,
6p5[2:1],,,,,,,,,,,,,,,,
5pp5[2:1],,,,,,,,,,,,,,,,
1p1[2:1],,,,,,,,,,,,,,,,
7qq8[2:1],,,,,,,,,,,,,,,,
3q4[2:1],,,,,,,,,,,,,,,,
8b,,,,,,,,,,,,,,,,
,,,,,,,,,,,,,,,,
E
