&title=月うさぎ -月光浴-
&artist=SENTIVE
&first=0.1
&des=Tzddxg
&des_5=Tzddxg
&lv_5=13
&inote_5=(90){8}2q5[8:3],{2}8h[8:3],{8}7,,,7,{4}3/8qq4[8:3],1,2,{8},7p4[8:3],{2}1h[8:3],{8}2,,,2,1pp5[8:3]/6,6,7,7,8,{4},
{16}4,5,{8}3qq5[8:3],,3,7,7h[4:1],{4},{16}5,4,{4}6q4[8:1],2<6[4:1]*p4[4:1]/6,2,{16},,1,8,{4}2pp8[8:3],{8}2,7,7h[4:1],,,{16}5,4,{8}6-1[8:1],28,4p7[4:1]*q1[4:1]/6,3,{4}4,,
{64}E4/5h[8:3],E3,E2,E1,,,,,{4},{8}2,1,6,7,8,2q5[8:5]/8,{4},,,{8}8,{64}8h[8:3]/E2,E3,E4,E5,,,,,{4},{8}2,5,6,7,3,{1}3q5[8:5]/8,{64}1h[8:3]/E8,E7,E6,E5,,,,,{4},{8}7,7,4,2,{16}6,4,{4}5q8[8:5],{8},1,1,,,4,{64}4h[8:3]/E6,E7,E8,E1,,,,,{4},{8}8,6,4,5,3,{4}2/8qq4[8:5],{8},2,2,,,
{16}1,1,2/8p4[8:1],,7,1,8,,2,2,7<4[8:1],1,8,,17,,1,1,2-5[8:1]/8,,3,5,2,,6,6,1q5[8:1],7,2,,17,,6,6,4q2[8:1]/7,,3,5,4,,7,7,4>8[8:1],5,3,,46,,5,5,{8}4/6-1[8:1],2h[16:1],3h[16:1],4h[16:1],{16}7p5[8:1],1,8,,{4}27,
{8}1/7q5[8:1],35,17,{16}2,2,7p4[8:1],1,8,2,17,,1,1,2pp4[8:1]/8,,8,1,28,,6,6,3p8[8:1],5,4,6,3/5,,5,5,4/6pp7[8:1],,4,5,46,,1,2,7q4[8:1],6,5,4,37,,1,1,2q4[8:1]/8,,8,1,28,,8,7,3p8[8:1],4,5,6,37,,6,5,{8}A4,B7,E3,E6,E2,{4},
{16}6,5,{8}4b/6b-1[8:1],1-5[8:1],4-2[8:1]/6,2qq6[4:1],4,7,7,{16}7,8,{8}1-5[8:1]/7,5-2[8:1],1/8-6[8:1],6q1[4:1],8,2,2,{16}3,4,{8}3-8[8:1]/5,8-4[8:1],3/5-7[8:1],7pp3[4:1],5,2,2,{16}2,1,{8}2/8-4[8:1],4-7[8:1],1-3[8:1]/8,3p8[4:1],1,7,7,
{16}6,5,{8}4b/6b<1[8:1],1-5[8:1],2-4[8:1]/6,4qq8[4:1],2,7,7,{16}5,4,{8}3-8[8:1]/5,8-4[8:1],3/5-7[8:1],7q2[4:1],5,1,1,{16}3,4,{8}3>8[8:1]/5,8-4[8:1],3/7-5[8:1],5pp1[4:1],7,2,2,{16}4,5,{8}4/6<1[8:1],1-5[8:1],4-2[8:1]/6,2p7[4:1],4,8,8,
,{4}4bv1[8:1]/6b<1[8:1],4>2[8:1]/6-2[8:1],4p6[8:1]/6,4-1[8:1]/8-5[8:1],4/8pp2[8:1],3<8[4:1]*<8[4:1]/8,{2}3/8-4[8:1],{4}1-6[8:1]/5-2[8:1],1>4[8:1]/5<8[8:1],1/5p8[8:1],3>8[8:1]*v8[8:1]/5,3v5[8:1],3/7q1[4:1]*q1[4:1],1>5[8:1]/7,,
{8}1b-4[8:1]/7b,35,1/7<4[8:1],{16}8,8,{8}2v5[8:1]/7,1,{8}2/8p4[8:1],{16}7,7,{8}3>8[8:1]/8,2,3/5-8[8:1],{16}6,6,{8}2p5[8:1]*q7[8:1]/5,1,{4}2,{8}2/8-5[8:1],46,2>5[8:1]/8,{16}1,1,{8}2/6<1[8:1],7,46,{16}3,3,{8}4b-8[8:1]/6b,2b/8b>4[4:1],46,7,,8qq4[2:1],8h[8:5],E
