&title=水上の提督 (Short mix from “幻想水浒伝V”)
&artist=猫叉master
&first=-0.085
&lv_5=13.4
&des_5=白-ster
&inote_5=
(140){4},{8},,,,,,,,,5,
,3,4,3,
,6,5,6,,4,5,4,
,2,1,2,,7,8,7,
,1,8,1,,4,6,{16}5,3,
{8}6,4,7,2/1-5[8:1],,1,7,8-4[8:1],
,8,2,1-5[8:1],,1,7,8-4[8:1],
,8,2,1-5[8:1],,1,7,7/4,
4/7,2/5,{16}5,3,6,2,5,4,7,2,6,4,5,3,
6,2,{8}7b,1b/8b,1h[8:1],8,2h[8:1],1,3h[8:1],
{16},5,{8}4h[8:1],6,6h[8:1]/4p1[8:3],5,4b,,,,7h[8:1],
{16},2,{8}8h[8:1],{16},2-5[8:1],{8}1h[4:1],,,,8/2,
{16}4,5,{8}4,6h[8:1],3,7h[8:1],2,
8h[8:1],1,2b/8b,1b/7h[8:1],3,6h[8:1],2,5h[8:1],
{16},3,{8}6-3[8:1],2,6/8q3[2:1],1,8,{2},{8}2h[8:1],
5,{16},4b,{8}7b-3[8:1],,7b/4h[4:1],
{4},{16}2,8,{8}1,6/4,5,3/4,6,
5/4,3,6/4,7h[4:3]/3h[8:1],,2h[8:1],,4h[8:1],
,1,{16}8,1,{8}6h[16:3],{16},4,{8}5h[16:3],{16},3,{8}4h[2:1],
3,{4},{8}2h[16:3],{16},4,{8}3h[4:1],,5h[4:1],
{4},{16}4,5,{8}2,,7/8,8/7,{16}6,1,
{8},7/8,,8h[4:1],,2,1,8/7,
2,7b,{16}3,4,{8}2,{16}6,5,{8}7,{16}2,4,{8}3,
5,2,6,2h[16:3],{16},4,{8}3h[16:3],{16},5,{8}4h[4:1],
{4},{16}5,4,{8}7,5/4,3/6,2/7,{16}8,1,
7,2,6,3,6,3,{8}6h[8:1],4h[8:1],1h[8:1],{4}2h[8:1],
{16}3,8,{8}3h[8:1],5,4,{16},6,{8}5,{16},2,{8}1,
,,,8b/1b,3h[8:1],5,{16},4,{8}6,
{16},8,{8}2,{16},3,{8}4,{16},6,{8}5,{16},2,{8}7,
{16}8h[16:1],1h[16:1],7h[16:1],3h[16:1],6h[16:1],4h[16:1],{8}5,{16},3,{8}1,{16}8/7h[16:1],8,{8},{16}4/3h[16:1],
4,{8},6/5,4,{16}6h[16:1],5h[16:1],6h[16:1],4h[16:1],6h[16:1],3h[16:1],6h[16:1],2h[16:1],
6h[16:1],1h[16:1],6h[16:1],8h[16:1],6h[16:1],7h[16:1],{8},{16}4,5,2,8,{8}1,{16}6h[16:1],3h[16:1],
5h[16:1],4h[16:1],{8}5h[16:1],{16}3,6,2h[16:1],5h[16:1],3h[16:1],6h[16:1],4,7,{8}2,{16}5,2,
{4}7-5[8:1],{8}7,2,{16}6,2,{8}2,2,{16}2,2,
,2,,2,{8}2,2/8,2/7,{16}2,2,,5,,3,
{8}3,{16}3h[16:1],5h[16:1],3h[16:1],6h[16:1],{8}3,{16}6,1,7,2,8,1,7,2,
6,3,5,4,5,4,{8}5h[8:1],,4/6,3/7,{16}2,2,
,8,{8}8-4[8:1],7,8b/1,{4},{16}3,5,{8}4,
{16}6,2,{8},{16}4,5,2,7,,1,{8},6,4/5,
{16}6h[16:1],3h[16:1],8h[16:1],1h[16:1],,6,{8}2h[16:1],{16}6,3,5,4,5,4,6,3,
8q3[2:1],2,{8}7h[8:1],{4}8,{8},,,6/4,
{16}3h[16:1],5h[16:1],4h[16:1],6h[16:1],3h[16:1],7h[16:1],2h[16:1],8h[16:1],{8}1h[16:1],6,{4}2h[8:3],
{16},,,8,1,7,{8}8,{4},{16}7,1,8,2,
{4}1,{16}3,4,{8}2,{16}6,5,{8}7,{16}2,4,{8}3,
{16}7,3,6,2,5,3,6,2,7,1,{8}8b/2b-5b[8:1],8b/4b,6b/2b,
{16},8,{8}7h[4:1],,3,4/5,2,{4}3/4,
{8}5,6/4,{4}5,{8}3,4/2,3,4/5,
6,7/5,{4}2,{16}4,5,4,5,4,5,3,6,
2,7,1,8,1,8,1,8,1,8,1,7,2,6,3,5,
4-8[8:1],5,{8}4b,4b/6,5,4,5,3,4,
{16}6,5,{8}6,3h[8:1],2,4h[8:1],5,6h[8:1],4,
,5b,3h[8:1],1,{16},7,{8}2,,4b/5b,
,6/3,{16}8,2,{8}5,3/7,2/6,5,2/8,
,2,6,5/4,3,6,2,{32}8,7,{16},{32}1,
2,{16},{8}6h[8:1],{16},4,{8}5,{16}3,4,2,3,2,4,{8}2,
{4},{16}5,3,{8}7,4,{16}5,3,5,4,{32}7,6,{16},{32}2,
3,{16},{8}8h[8:1],{16},2,{8}7h[16:3],{16},5,{8}6h[16:3],{16},4,{8}5h[8:1],
3,4,3/5,6b,{16},2b,{8}8b,{16},5b,{8}6b,
{16},3b,{8}4b,{16},1b,{8}7b,{16},2b,{8}4b,{16}6b,5b,{8}7b,
{4},{16}3b,4b,{8}2b,{16},8b,{8}7b,{16},3b,{8}5b,
{16},2b,{8}1b,{16},7b,{8}5b,{16}3b,4b,{8}2b,{16}8b,1b,8b,1,
7,2,{8},1/3,2,{16},2,{8},3,3,
{16},5,{8},5,3,{16},5,{8},4,7,
8,{2},{8}2,{16},2,{8}4,
6,7,,8,1,8/2-5[8:1],,2/6-1[8:1],
,6/2-4[8:1],,6/2,{16},5,{8},3,4,
{16},2/5,{8},3,3,{16},3,{8},3,3,
{16},7,{8},7,7,{16},7,{8},7,2,
{16},2,{8},{16}1,3,{8}8,{16},8,{8},8,{16}8,2,
6,4,{8},{4}5/3,
E
