&title=Magical Panic Adventure
&artist=削除
&first=0.413
&des=▽v▽
&lv_5=14
&inote_5=(145)
{16}4h[8:1],,5,4,6h[8:1],,4h[8:1],,5h[8:1],,4,5,3h[8:1],,5h[8:1],,
{16}3h[8:1],,5,4,7h[8:1],,2h[8:1],,6h[8:1],,4,5,2-5[16:1]/7,,,8,2,,7,,6,,,,
{8}5>3[16:1]*<7[16:1]/6,,5,,2q6[8:1],1,8p4[8:1],,,3,2,1,
{8}1-3[8:1]/8h[8:1],,8h[8:1],,8h[8:1]/5-3[8:1],,8h[8:1],,
{8}8-4-1[4:1],8h[8:3],,,,4h[8:3],5,6,7h[4:1],,6h[4:1],7,8h[4:1],,7h[4:1],8,
{8}1b-5[8:1],,1,,8-3[8:1]*-5[8:1],,8,,
{8}3/7,8,1,2,3/7,6,5,4,3/7,,B3,,B7,,
{16}8,7,8,7,
{16}2bh[4:3],,,,,,5,5,5-2[8:1],,,,,,,,
{16}7h[4:3],,,,,,4,4,4-7[8:1],,,,,,,,
{16}1/2,,3,,1/2,,8,1,8-4[8:1],,2,,3,,2,,
{16}7/8,,6,,7/8,,1,8,1-5[8:1],,7,,6,,7,,
{32}A2/4-8[8:1],D3,A3,D4,A4,D5,A5,D6,A6f,,,,,,,,
{32}A7/5-1[8:1],D7,A6,D6,A5,D5,A4,D4,A3f,,,,,,,,
{32}A6/8-4[8:1],D7,A7,D8,A8,D1,A1,D2,A2/A8f,,,,,,,,
{32}A3/1-5[8:1],D3,A2,D2,A1,D1,A8,D8,A7/A1f,,,,,,,,
{4}2p7p4[4:6]/Ch[4:7]/B1f/B8f,,,,,,,,
{24}3,,,3,,4,3,,,3,,,6,,,6,,5,6,,,6,,,2>5[16:1],,,2,,1,2,,,1,,,
{24}7<4[8:1],,,7,,8,7,,,8b,,,
{24}6,,4,6,,3,5,,2,4,,4,1,2,3,8,7,6,4/5,,,3/4,,,6h[4:1],,,5,,,
{24}8,,,1,,,2,,2,3,,2,4,,2,5,,2,8,7,6,3,2,1,5,,,5,,2,6-3[8:1],,,7,,,8b,,,8b,,,
{24}1h[8:1],,,2h[8:1],,,8h[8:1],,,7h[8:1],,,1V37[8:1],,2/8,,,,1/5,,,5,,,
{24}6,,,6,,Ch[6:1],6,,,6,,,7,,,7,,Ch[6:1],7,,,7,,,
{24}8h[6:1]/3,,4,,3h[4:1],,7,,8,,7,,
{24}4V62[8:1]/6,,5,,,,4/8,,,8,,,
{24}5/6,,5,6,,4,7,,3,8,,2,1h[8:1],,,4,3,2,1h[8:1],,,6,7,8-2-4-6-8b[24:13],
{4}1h[4:3],,,,
{24}4,,4,6,,2,4,,4,6,,2,4,,4,6,,2,4b,,,4b,,,
{24}5,,5,7,,3,5,,5,7,,3,5,,5,7,,3,5b,,,5b,,,
{24}1,,,B7,,,1,,,B5,,,1,,1,B7,,,1,,,B5,,,
{24}8h[8:1],,,B2,,,8h[8:1],,,B4,,,8h[8:1],,,B2,,8,8h[8:1],,,B4,,,
{24}6,,6,5,,,8h[12:1],,7,8,,,3,,3,4,,,1h[12:1],,2,1,,,
{4}5h[4:2],,4h[4:2],,
{4}8b-4[8:1],,1b-5[8:1],,
{24}E6,B6,B7,E8/1,,,E4,B3,B2,E2/8,,,A5,A6,A7,A8/3,,,A4,A3,A2,A1/6,,,
{8}3/6>3b[8:1],,2v7b[8:1]/6,1>4[8:1],2,1<6[8:1],5v8b[8:1],1v4[8:1],5,1,
{16}6v3b[4:1],,5/7,,3v6b[4:1],,,,6,,,,1-4[8:1],,,,1-6[8:1]/7,,6-1[8:1],5,4q8q4b[4:1]/1,,,,4,,,,7-4b[8:1],,8-3[8:1],,7,,8-4[8:1],,5<8b[8:1],,8>3b[8:1],,5,,,,
{32}4-1[16:1],,,,,,,,7b-2[16:1]/4b,6,5,,,,,,7b/2b,3,4,,,,,,1b/8b,2/7,3/6,4/5,,,,,
{12}1h[24:1]/5h[24:1],2h[24:1]/6h[24:1],3h[24:1]/7h[24:1],2h[24:1]/6h[24:1],1h[24:1]/5h[24:1],4h[24:1]/8h[24:1],1v8[8:1]/5v4b[8:1],,,1/5,,,
{12}4h[12:1],3h[12:1],2h[12:1],5h[12:1],6h[12:1],7h[12:1],1h[12:1],3h[12:1],2h[12:1],8h[12:1],6h[12:1],7h[12:1],1b,,,,,,,,,,,,5b,,,,,,,,,,,,
{16}4-8[8:1]/5,,6/7,,4/5,,7,,5,4,7>1[8:1],,4/5,,7/2,,5-1[8:1],,2/3,,4/5,,2,,4,5,2>4[8:1],,4/5,,2/7,,
{16}6,,1/8-4[8:1],,6,3,8,,3,,1-5[8:1]/8,,3,,1/8,,6,3,8-4[8:1],1,6,,1/8,,3,6,1-5[8:1],,3/6,,1/8,,
{16}7h[8:1],,8,6,1,5,2,4,3b,1,4,8,5,7,4,6,3b,5,2,4,1,7,2,6,3b,5,4,6,5,7,4,8,
{16}3/1bh[8:1],,6,1,4,7,8,5,7,4,2,6,5,1,3,4,7,5,7,4,2,4,7,5,8,1/7,2<8[16:1]/6<8[16:1],3/5,4,,,,
{16}4,,1/2,,5,,7/8,,4,1,2-6[8:1],,4,,1/2,,5,,8/7,,4,,2/1,,5,8,7-3[8:1],,5,,8/7,,
{16}4,,2/8,,5,1,7,,3-7[8:1],5,2,6,3,,8,,1-5[8:1],5,8,4,1,,8-3[8:1],,2,7,8-5[8:1],,4,,8/7,,6bxh[8:1],,7,5,8,4,1,3,2b,1,3,8,4,7,5,6,2,4,2,5,7,5,2,4,3,1,2,8,1,7,8,6,
{24}1,2,3,4,5,6,2,1,8,7,6,5,8,7,6,5,4,3,6,7,8,1,2,3,5,6,7,8,1,2,6,5,4,3,2,1,
{32}3x,4x,5x,6x,7x,8x,1x,2x,
{48}3bx,4bx,5bx,6bx,7bx,8bx,1bx,2bx,3bx,4bx,5bx,,
{16}7,,3/4,,8,8,8,2,2,,
{24}6/7,,3,3,,,5/6,,,
{16}2,,6/5,,1,1,1,7,7,,
{24}3/2,,6,6,,,4/3,,,
{16}6,,2/1,,5,5,5,3,3,,
{24}7/6,,2,2,,,8/7,,,
{16}3,,7/8,,4,4,4,6,6,,
{24}2/3,,7,7,,,1/2,,,
{16}3,3,5,5,6,6,8,8,
{32}2,1,2,,
{24}3>1[8:1]/8,,7,7,,,8,,,
{16}6,6,4,4,3,3,1,1,
{32}7,8,7,,
{24}6<8[8:1]/1,,2,2,,,1,,,
{32}2,3,4,5,8,7,6,5,1,2,3,4,1,8,7,6,8b,1,2,3,6b,5,4,3,1b,2,3,4,1b,8,7,6,
{4}1b-4-7[4:1]/5b-8-3[4:1],,,2b/6b,
{8}1b-6[8:1]/6b,3/8-4[8:1],1/6,8,2b-6[8:1],3-7[8:1],2,3,4b-1[8:1]*-2[8:1],1/2-5[8:1],4,,
{48}7,D8f,A8,D1,A1,D2,A2,D3,A3,D4,A4,D5,2,D2f,A1,D1,A8,D8,A7,D7,A6,D6,A5,D5,
{8}1b-6[8:1],5-2[8:1],1/2,5,8b-5[8:1],7-3[8:1],5/8,7,1-3[8:1],1V75[8:1],1/8,,
{32}E1f,B1,B2,E3,E7f,B6,B5,E5,E8f,B8,B1,E2,E6f,B5,B4,E4,
{8}8b-3[8:1],5-8[8:1]/6,7/8,5,4b,5/6,1V74[8:1]/2,7/8,1bq6[8:1]/2b,,1bp3[8:1]/8b,,1bw5b[8:1]/2b,,1b,,
{32}1,2,3,4,5,6,7,8,5,,2,,7,,3,,8,7,6,5,4,3,2,1,4,,7,,2,,6,,
{4}C,4-8[8:1]*>5[4:13],4,,,,,,,,,,,,
{8}4,4b,,,
E
