&title=飛竜の騎士
&artist=TRUE 「最弱無敗の神装機竜」
&first=-0.02
&des=天守閣のかすみそう
&lv_5=13+
&inote_5=(148)
{1},
{16}2h[8:1]/8h[8:1],,,2h[8:1]/8h[8:1],,,2/8,,3x-8[8:1]/7x-4[8:1],,,,,,,,
{12}1,4,3,6,5,7,1x-5[8:1],,,,,,
{8}8bh[4:5]/4-2[8:1],,4-6[8:1],,4-2[8:1],,4-6[8:1],,
{16}4-8b[8:1],,,,,,,6xh[8:1],,4,5,3,4,2h[16:3],,,
{16}6,6h[8:1],,8,,1/5,,3,,2/4,,6,,5/7h[16:3],,,
{16}1bhx[8:1],,,2hbx[8:1]/8hxb[8:1],,,2bxv3-5[4:1]/8bx,,,,,,,,,,
{8}6h[4:3],,5,5-8[8:1],,,,,
{8}3h[4:3],,1,1-4[8:1],,,,,
{8}7h[4:3],,6,6-1[8:1],,,,,
{16}2v7b[8:1],,,,6,,6^3b[8:1],,1xb,,,2bx,,,3bx/4xb,,
{16},,5/2h[4:1],,,,7,8,7bx,,,6bx/5bx,,,4bxz8^1s5b[2:1]/5bx,,
{4},,,3/6,
{16}1/8,,3,5,4,,2,6,4,,1,7,4,,2,6,
{16}4x,,3x/5x,,8,7,,6qq7[32:9]/1,,,1b/6b,,,,,,
{8}8x^3[8:1],,8/4,5,6-3[8:1]/4,,1h[4:1],,
{8}4-8[8:1],,4/5,6,7-3[8:1]/1,,4h[4:1],,
{8}1^6[8:1],,1/5,4,3-6[8:1]/5,,8h[4:1],,
{16}5,,6/7,,1/8,,2/3,,4b/5b,,,1b/6b,,,3b/8b,,
{16},,2/1,,3/7,,4,5,3bx/6bx,,,1b/3b,,,7b/8b,,
{24},,,4x,5x,3x,4x,,,5x,4x,6x,{16}5x,,3,2/4,,5,4/6,,
{16}2/1,,6,4,5,,7,3,5,,8,2,5,,7pp6[16:5],3,
{16},,7bx,,4,4,,3-8[8:1],,,4x/5x,,6xh[4:1],,,,
{16}1-5[8:1],,,,1pp8[4:1]/8,,,7,,,6,,6h[4:1],,,,
{16}7>4[4:1],,,,6/7,,5x,5xh[16:3],,,1,,2/4,,3/5,,
{16}4-8[8:1]/6,,,,4qq5[4:1]/8,,,6,,,7,,7h[4:1],,,,
{16}6>1[4:1],,,,6/7,,8x,8xh[16:3],,,1bx,,,,3,4,
{16}2-5[8:1],,2,,5,,6,,7,7,6,,8/5,,1/4,,
{16}2-6[8:1],,2,,6,,7,,8,8,1,7,2,6,3,5h[16:3],
{16},,1b,,3/4,,2,,1/8,,7,8,7,8,6x/1x,,
{16}5/4,,4,5,3,,5,4,6^3[8:1],,,,8w4[8:1]/6,,,,
{4}8bqq2[2:1],,,5xw1[8:1],
{4}5bpp3[2:1],,,1-5[8:1],
{8}1b/5b,6,5/7,5/7,{16}4,8,3,7,2,6,1,5,
{16}8bx-2[16:1],,,4bx-6[16:1]/8bx-4b[16:1],,,8bx/4bx,,,,3,3,4,,2/5,,
{16}7/8^3[8:1],,5,5,8,,6-2[8:1]*-1b[8:1],,4,,6b,,,,8/3,,
{16}4^1[8:1]/5,,1,1,4,,6-2[8:1]*-1b[8:1],,8,,6b,,,,3/8,,
{16}4/6-3[8:1],,2,2,6,,8,,1/6,,1/5,,8/4,,8/3^6[8:1],,
{16}1x/2x,,3,7,7,,5/6,,7,8,6,1,5,2,4b-1[8:1],,
{16},,4/5,,6,,1,8,2^5[8:1],,1,,5,,6,,
{8}7-2[8:1],8,2,4,5qq4[16:3],5,8,7,
{8}6b-1[8:1],5,4-8[8:1]/6,5,7-4[8:1]/4,6,7/1,1b>6[4:1],
{16},,6,,7,,8h[4:1],,,,5,5,6,4,3x/7x,,
{16}2x/1x^6[8:1],,4,4,1,,3-7[8:1]*-8b[8:1],,4/5,,3b,,,,1/6,,
{16}5^8[8:1]/4,,8,8,5,,3-7[8:1]*-8b[8:1],,1/2,,3b,,,,6/1,,
{16}5/3-6[8:1],,7,7,3,,1,,8/3,,8/4,,1/5,,1/6^3[8:1],,
{16}7x/8x,,6,1,1,,2/5,,3,4,2,5,1bx/6xb,,7/8,,
{16}1-5[8:1]/5,,6,6,1,,7,,8,5,8,2,8,5,7,4,
{16}6^3[8:1],,2,2,6,,1,,8,3,8,5,8,3,1,4,
{16}2x,2,4,3,5x,4,6,5,7x,7,5,6,4xV25-1-6-8b[4:3],5,3bh[8:9],,
{1},
{24}8xh[8:5],,,,,,,,,2xh[4:1],,,,,,,{48}D8/D3,A7/A3,D7/D4,A4/A6,D6/D5,A5f,,,,,,,,,,,
{16}2,2/1h[8:1],,4,,8/3,,5,,6/1,,4,,3h[16:3]/8,,,
{16}4,4/3,,1,,2/8,,3,3,5,4,4,6,5,7h[8:1],,
{16}1b,8,3,4,2,6,8,7,4,5,3,7,2,1,3,8h[16:1],
{32}2bx,3x/7x,4x/6x,5x,,,1bx/7bx,2x/6x,3x/5x,4x,,,1bx/8bx,2bx/7bx,3bx/6bx,4bx/5bx,,,,,,,,,
